<?xml version="1.0" standalone="no"?>
<!DOCTYPE svg PUBLIC "-//W3C//DTD SVG 1.1//EN" "http://www.w3.org/Graphics/SVG/1.1/DTD/svg11.dtd" >
<svg xmlns="http://www.w3.org/2000/svg">
<metadata>Generated by IcoMoon</metadata>
<defs>
<font id="icomoon" horiz-adv-x="1024">
<font-face units-per-em="1024" ascent="960" descent="-64" />
<missing-glyph horiz-adv-x="1024" />
<glyph unicode="&#x20;" d="" horiz-adv-x="512" />
<glyph unicode="&#xe600;" d="M416.495 663.296c-8.841 0-17.732-3.499-24.269-10.223-12.902-13.244-12.373-34.082 1.058-46.575l166.059-154.846-166.639-162.782c-13.193-12.834-13.193-33.741-0.102-46.575 13.244-12.834 34.526-12.834 47.735 0l190.959 186.726c6.4 6.195 9.967 14.797 9.865 23.637-0.068 8.875-3.874 17.289-10.53 23.467l-190.959 178.108c-6.4 5.99-14.797 9.062-23.177 9.062z" />
<glyph unicode="&#xe601;" d="M362.991 663.296c-8.806 0-17.698-3.499-24.235-10.206-12.902-13.261-12.39-34.099 1.058-46.592l166.042-154.829-166.605-162.799c-13.227-12.834-13.227-33.741-0.102-46.575 13.193-12.834 34.458-12.834 47.701 0l190.976 186.726c6.417 6.195 9.984 14.797 9.865 23.637-0.119 8.875-3.891 17.306-10.547 23.467l-190.942 178.108c-6.485 5.99-14.848 9.062-23.211 9.062zM658.057 232.67c-20.309 0-36.608 13.773-36.608 30.925v368.811c0 17.033 16.299 30.908 36.608 30.908 20.207 0 36.608-13.858 36.608-30.908v-368.794c-0.017-17.186-16.418-30.942-36.608-30.942z" />
<glyph unicode="&#xe602;" d="M607.522 663.296c8.841 0 17.732-3.499 24.269-10.223 12.902-13.244 12.373-34.082-1.058-46.575l-166.076-154.846 166.639-162.782c13.193-12.834 13.193-33.741 0.102-46.575-13.244-12.834-34.526-12.834-47.735 0l-190.976 186.743c-6.4 6.195-9.967 14.797-9.865 23.637 0.068 8.875 3.857 17.289 10.53 23.467l190.993 178.108c6.4 5.973 14.797 9.045 23.177 9.045z" />
<glyph unicode="&#xe603;" d="M660.975 663.296c8.806 0 17.698-3.499 24.235-10.206 12.902-13.261 12.39-34.099-1.058-46.592l-166.042-154.829 166.605-162.799c13.227-12.834 13.227-33.741 0.102-46.575-13.21-12.834-34.475-12.834-47.701 0l-190.976 186.726c-6.417 6.195-9.984 14.797-9.865 23.637 0.119 8.875 3.891 17.306 10.547 23.467l190.942 178.108c6.485 5.99 14.848 9.062 23.211 9.062zM365.909 232.67c20.326 0 36.625 13.773 36.625 30.925v368.811c0 17.033-16.299 30.908-36.625 30.908-20.207 0-36.608-13.858-36.608-30.908v-368.794c0.017-17.186 16.418-30.942 36.608-30.942z" />
<glyph unicode="&#xe604;" d="M296.704 509.406c0 8.823 3.533 17.801 10.291 24.354 13.141 12.8 34.031 12.373 46.524-1.161l154.812-166.076 162.765 166.673c12.732 13.107 33.707 13.107 46.592 0 12.817-13.039 12.817-34.492 0-47.531l-186.675-191.13c-6.332-6.485-14.882-9.916-23.774-9.847-8.789 0.188-17.186 3.959-23.415 10.53l-177.988 190.959c-6.007 6.4-9.131 14.814-9.131 23.228z" />
<glyph unicode="&#xe605;" d="M475.426 676.164v-87.074c0-19.593-15.906-35.465-35.499-35.465l-178.415-0.051v-211.046h178.415c19.61 0 35.499-15.872 35.499-35.499v-87.142l276.941 228.13-276.941 228.147zM457.591 128.802c-7.066 0-13.892 1.382-20.224 3.994-19.866 8.192-32.802 27.375-32.922 48.913v89.822h-160.836c-29.286 0-53.077 23.842-53.077 53.129v246.733c0 29.372 23.791 53.163 53.077 53.163h160.836v89.754c0.119 21.487 13.022 40.687 32.922 48.913 6.417 2.628 13.227 3.977 20.224 3.977 13.261 0 26.231-5.12 35.977-14.046l322.048-265.301c0.939-0.734 1.792-1.536 2.611-2.372 20.275-20.429 20.275-54.818-0.137-75.093-0.785-0.836-1.621-1.536-2.475-2.287l-322.048-265.25c-9.728-8.909-22.733-14.046-35.977-14.046z" />
<glyph unicode="&#xe606;" d="M447.949 580.813l46.455 25.139c13.039 7.168 18.022 23.296 11.025 36.13l-74.001 136.533c-7.031 12.937-23.194 17.664-36.335 10.598l-46.37-25.173 99.226-183.228zM752.196 186.88l-73.933 136.431c-7.031 13.141-23.433 17.835-36.267 10.769l-46.473-25.173 99.191-183.33 46.507 25.173c12.971 7.066 17.903 23.228 10.974 36.13zM567.774 293.717c-13.397-7.134-42.479-8.533-110.763 116.139-67.959 124.467-50.142 148.736-36.659 155.87l3.994 2.27-99.43 183.125-4.796-2.56c-24.166-13.141-118.306-119.774 31.369-395.861 149.931-276.361 290.56-255.761 314.539-242.671l4.966 2.697-99.277 183.159-3.942-2.167z" />
<glyph unicode="&#xe607;" d="M678.519 499.593h-19.302v123.136c0 69.888-67.055 126.703-149.47 126.703-82.21 0-149.231-56.815-149.231-126.703v0-123.136h-19.354c-26.47 0-48.077-21.623-48.077-48.094v-256.802c0-26.487 21.623-48.128 48.077-48.128h337.357c26.487 0 48.111 21.641 48.111 48.128v256.802c0.017 26.487-21.623 48.094-48.111 48.094zM551.851 232.055h-84.19l17.067 90.607c-14.012 8.533-23.518 23.927-23.518 41.609 0 26.88 21.743 48.538 48.555 48.538 26.743 0 48.572-21.658 48.572-48.538 0-17.664-9.421-33.075-23.552-41.609l17.067-90.607zM595.046 499.593h-170.564v123.136c0 34.065 39.066 62.754 85.282 62.754 46.131 0 85.282-28.689 85.282-62.754v-123.136z" />
<glyph unicode="&#xe608;" d="M766.72 638.874l-133.376 125.935c-4.284 3.925-9.899 6.161-15.65 6.161h-344.747c-12.561 0-22.733-10.206-22.733-22.835v-600.269c0-12.629 10.172-22.835 22.733-22.835h478.106c12.476 0 22.733 10.206 22.733 22.835v474.505c0 6.195-2.628 12.134-7.066 16.503zM295.748 170.564v554.871h296.567v-112.708c0-10.035 8.26-18.227 18.33-18.227h117.641v-423.936h-432.538zM662.118 484.506h-304.589c-11.725 0-21.282 10.206-21.282 22.835 0 12.459 9.574 22.665 21.282 22.665h304.589c11.793 0 21.333-10.206 21.333-22.665 0-12.646-9.54-22.835-21.333-22.835zM662.118 389.939h-304.589c-11.725 0-21.282 10.308-21.282 22.835 0 12.595 9.574 22.665 21.282 22.665h304.589c11.793 0 21.333-10.069 21.333-22.665 0-12.544-9.54-22.835-21.333-22.835zM662.118 288.427h-304.589c-11.725 0-21.282 10.308-21.282 22.767 0 12.561 9.574 22.869 21.282 22.869h304.589c11.793 0 21.333-10.308 21.333-22.869 0-12.459-9.54-22.767-21.333-22.767z" />
<glyph unicode="&#xe609;" d="M766.703 638.839l-133.359 126.037c-4.198 3.942-9.865 6.093-15.667 6.093h-344.747c-12.544 0-22.75-10.24-22.75-22.835v-600.337c0-12.595 10.206-22.767 22.75-22.767h478.225c12.561 0 22.699 10.172 22.699 22.767v474.624c-0.017 6.212-2.611 12.049-7.151 16.418zM295.663 170.496v554.94h296.755v-112.708c0-10.035 8.124-18.125 18.227-18.125h117.658v-424.107h-432.64zM638.037 389.308c0-3.925-1.536-7.834-4.096-10.633l-112.333-129.041c-0.068-0.239-0.324-0.393-0.461-0.666-6.212-6.007-16.23-6.007-22.204 0-0.41 0.171-0.597 0.427-0.768 0.666l-112.128 129.041c-2.765 2.799-4.164 6.707-4.164 10.633 0 2.099 0.341 4.13 1.161 5.939 2.372 5.871 8.107 9.796 14.404 9.796h42.103v127.693c0 8.704 7.117 15.633 15.804 15.633h109.295c8.602 0 15.735-6.929 15.735-15.633v-127.693h42.069c6.298 0 12.032-3.925 14.404-9.796 0.836-1.809 1.178-3.84 1.178-5.939z" />
<glyph unicode="&#xe60a;" d="M511.949 792.508c-129.024 0-233.25-104.465-233.25-233.233 0-2.765 0-5.803 0-8.499 1.007-24.474 5.717-48.043 13.466-70.093 49.766-163.669 219.785-377.173 219.785-377.173s170.103 213.504 219.921 377.105c7.68 22.135 12.442 45.705 13.158 70.161 0.273 2.697 0.273 5.734 0.273 8.499 0 128.768-104.294 233.233-233.353 233.233zM511.949 444.843c-63.044 0-114.142 51.132-114.142 114.432 0 62.942 51.098 114.227 114.142 114.227 63.113 0 114.244-51.302 114.244-114.227 0-63.3-51.132-114.432-114.244-114.432z" />
<glyph unicode="&#xe60b;" d="M512.085 770.97l-324.011-200.533 647.834-0.563zM217.19 213.606h588.902v-88.303h-588.902v88.303zM279.381 540.877h55.125v-297.643h-55.125v297.643zM689.169 540.535h55.074v-297.626h-55.074v297.626zM552.585 540.655h55.040v-297.643h-55.040v297.643zM415.949 540.826h55.125v-297.677h-55.125v297.677z" />
<glyph unicode="&#xe60c;" d="M233.404 627.183h-13.807c-1.007 0-1.946 0.853-1.946 1.826v7.083c-13.278 2.167-22.443 11.11-22.955 22.886-0.085 0.427 0.068 1.041 0.393 1.161 0.341 0.939 0.768 1.263 1.263 1.263h18.859c1.007 0 1.673-1.365 1.775-1.997 0.563-4.574 4.267-6.332 8.926-6.332 3.738 0 8.892 1.826 8.892 5.632 0 2.697-0.478 4.796-8.414 6.827l-9.506 2.867c-13.551 3.942-21.47 11.418-21.47 21.794 0 10.65 9.097 19.593 22.221 22.716v6.485c0 0.922 0.956 1.758 1.946 1.758h13.807c1.007 0 1.826-0.836 1.826-1.758v-6.571c12.288-3.038 21.060-11.793 21.316-22.306 0 0 0-0.188 0-0.341 0-1.058-0.853-1.843-1.69-1.843h-19.029c-1.024 0-1.673 0.785-1.775 1.724 0 3.908-4.625 5.41-8.141 5.41-4.659 0-8.107-2.287-8.107-5.205 0-1.161 0-3.14 7.339-5.325l11.435-3.209c13.568-3.959 20.804-11.947 20.804-22.716 0-10.786-9.353-20.105-22.17-22.613v-7.441c0.034-0.922-0.802-1.775-1.792-1.775zM745.404 624.213h-442.607c-7.373 0-13.756 7.253-13.756 15.172 0 8.499 6.383 15.223 13.756 15.223h442.607c7.492 0 12.442-6.724 12.442-15.223 0-7.919-4.949-15.172-12.442-15.172zM880.23 568.252c-18.193-1.929-37.035-19.78-41.472-38.093-1.553-10.291-0.102-20.787 4.335-30.635 0.87-2.85 14.831-28.638 15.497-28.023l-19.695-16.521c0 0-106.871 118.426-243.388 120.098-97.519 0.905-149.385-31.829-149.385-31.829s-77.227 65.758-126.874 37.82l27.648-117.419c0 0-47.309-33.638-44.117-74.103 0 0-34.492-16.93-54.835-26.965-14.575-7.39-18.517-18.995-12.476-32.734l33.161-94.003c0 0 5.359-19.115 24.235-18.688 32.973 0.478 35.174-1.28 35.174-1.28s43.366-59.972 61.628-66.441c5.632-1.468-21.231-90.999-21.231-90.999s-3.806-15.582 12.373-19.371c3.209-0.256 64.546 0.171 64.546 0.171 13.551-0.41 18.176 8.994 18.176 8.994l44.1 45.722c0 0 59.341-24.661 157.372 0 0 0 30.293-35.021 45.039-47.718 0 0 6.741-7.339 16.759-7.339 6.793 0 67.533 0.102 67.533 0.102s20.531-0.188 13.909 19.251c-4.898 17.101-26.88 89.225-26.88 89.225s82.313 66.731 92.535 134.895c10.274 68.779-17.34 150.204-17.34 150.204s15.872 17.101 29.696 32.939c0 0 1.143 1.161 1.911 2.492l-4.779-7.373c8.653 9.404 14.609 16.794 15.906 18.227 9.83 7.919 18.108 31.198 20.036 42.871 5.001 24.235-11.93 49.869-39.1 46.524zM673.297 470.255c-3.294-8.277-11.281-13.329-20.002-13.329-3.567 0-8.038 1.434-11.059 3.362-0.068 0.085-0.171 0.085-0.273 0.085-3.772 2.782-20.224 10.871-37.939 10.871-21.043 0-36.403-8.158-37.222-9.353-4.045-1.604-7.39-2.594-12.032-2.594-7.646 0-15.821 5.393-20.087 14.131-4.574 11.281-1.041 25.327 9.421 31.317 3.516 1.314 26.931 15.070 59.921 15.070 31.556 0 58.129-15.753 60.57-17.783 10.308-6.417 14.746-20.446 8.704-31.778zM876.698 481.143c-0.085 0-0.085 0-0.29 0-3.243 0-30.839 20.292-21.163 49.647 1.673 5.973 3.43 11.179 8.175 15.223 4.284 4.659 10.94 6.861 16.299 6.861 9.54 0 18.893-5.905 22.665-19.627 6.025-30.857-25.685-52.105-25.685-52.105zM232.636 394.957c10.615 5.239 24.422 12.749 35.396 18.227 2.236 10.581 7.1 20.361 11.674 29.099h-127.829v321.058h651.93v-226.918c0 0.205 0.102 0.29 0.102 0.358v0.205c4.386 25.719 23.381 48.794 47.889 60.126v245.009c0 8.585-7.083 14.967-15.548 14.967h-717.978c-8.414 0-14.541-6.383-14.541-14.967v-435.661c0-8.004 6.11-14.473 14.541-14.473h107.674c1.843 1.058 3.584 2.065 6.69 2.97z" />
<glyph unicode="&#xe60d;" d="M857.993 814.848c-87.962 0-157.508-69.854-157.508-155.17 0-85.914 69.547-155.085 157.508-155.085 86.596 0 157.474 69.171 157.474 155.085 0 85.299-70.861 155.17-157.474 155.17zM878.899 590.985v-12.988c0-2.543-1.638-4.062-4.693-4.062h-24.695c-1.946 0-3.43 1.519-3.43 4.062v12.561c-27.477 4.727-45.124 21.197-46.217 44.305-0.119 0.905 0.239 1.775 0.956 2.458 0.666 0.751 2.697 1.758 3.652 1.758h35.447c1.655 0 3.191-1.86 3.362-3.447 2.714-8.687 7.441-12.766 17.203-12.766 8.823 0 17.903 4.233 17.903 11.554 0 4.557-1.092 8.533-16.862 12.937l-18.415 4.796c-26.214 7.748-41.609 22.118-41.609 41.865 0 20.599 17.715 37.291 44.595 42.428v12.988c0 1.946 1.485 3.959 3.43 3.959h24.695c3.072 0 4.693-2.031 4.693-3.959v-12.988c23.825-4.557 40.755-21.538 41.472-41.609 0-0.256 0-0.495 0-0.836 0-1.877-1.553-3.379-4.625-3.379h-35.567c-1.894 0-3.43 1.434-3.516 3.277-1.348 7.595-8.243 10.462-16.196 10.462-9.762 0-14.097-5.137-14.097-10.121 0-2.441 0-6.4 12.834-10.377l22.272-6.434c27.221-7.066 40.533-21.606 40.533-42.428-0.034-20.548-18.125-38.434-43.127-44.015zM134.042 397.995v-7.014c0-1.587 0.836-2.526 2.082-2.526h13.585c1.058 0 3.191 0.939 3.191 2.526v7.339c13.79 3.209 23.706 13.090 23.706 24.388 0 11.469-7.953 19.917-22.34 23.535l-13.466 3.823c-6.588 2.441-6.588 4.284-6.588 5.632 0 3.123 2.56 5.564 8.55 5.564 3.669 0 7.543-1.604 7.612-5.837 0.102-1.007 2.167-1.758 3.191-1.758h20.241c0.99 0 1.877 0.922 1.877 1.843 0 0.273 0 0.358 0 0.495-0.512 11.162-9.677 20.361-22.784 23.415v7.083c0 0.99-2.133 2.423-3.191 2.423h-13.602c-1.229 0-2.082-1.434-2.082-2.423v-6.946c-15.223-3.294-25.088-12.663-25.088-24.064 0-10.769 8.55-19.234 24.166-22.938l10.274-3.038c7.27-2.014 9.182-4.966 9.182-7.083 0-3.959-5.598-6.076-9.779-6.076-5.99 0-8.738 2.031-9.591 6.741-0.085 0.853-0.87 1.519-3.089 1.519h-18.927c-0.512 0-2.219-0.256-2.56-0.58-0.444-0.358-0.7-0.939-0.529-1.365 0.512-13.039 10.377-21.811 25.958-24.678zM223.983 386.099h257.69c8.021 0 13.602 6.912 13.602 15.957 0 8.926-5.581 15.94-13.602 15.94h-257.69c-6.775 0-13.431-7.014-13.431-15.94 0-9.045 6.656-15.957 13.431-15.957zM122.709 296.38h604.023c8.055 0 14.746 7.407 14.746 15.872 0 9.097-6.707 15.94-14.746 15.94h-604.023c-8.055 0-14.797-6.844-14.797-15.94 0-8.465 6.741-15.872 14.797-15.872zM789.385 230.554h-729.293v316.228h625.681c-19.473 28.996-30.686 62.771-30.771 99.618h-630.818c-8.021 0-15.65-6.912-15.65-15.957v-437.623c0-9.011 7.629-16.452 15.65-16.452h801.246c7.799 0 15.394 7.441 15.394 16.452v266.359c-18.21 0.256-34.492 3.823-51.473 8.806v-237.431z" />
<glyph unicode="&#xe60e;" d="M851.61 463.838c-101.751 0-184.695 82.534-185.259 184.047h-637.508c-11.025 0-20.309-8.772-20.309-20.156v-429.961c0-11.008 9.267-20.309 20.309-20.309h802.611c11.383 0 20.173 9.301 20.173 20.309v266.069h-0.017zM41.148 211.012v114.074c62.788 0 113.971-51.268 113.971-114.074h-113.971zM41.148 500.736v113.971h113.971c-0.017-63.898-51.2-113.971-113.971-113.971zM458.598 280.747v-23.091c0-4.506-3.942-7.287-7.526-7.287h-43.622c-4.267 0-7.202 2.782-7.202 7.287v22.477c-46.404 8.192-76.595 37.7-79.599 78.524-0.068 1.673 0.324 2.918 2.85 4.42 0.751 1.092 2.679 1.997 4.335 1.997h62.618c2.953 0 6.707-2.167 7.031-5.001 2.765-15.65 12.066-21.862 29.594-21.862 14.148 0 30.857 6.656 30.857 19.831 0 7.031-3.26 15.411-28.996 23.177l-31.778 8.789c-47.411 12.544-72.892 39.612-72.892 73.916 0 36.779 30.925 65.502 75.998 74.991v23.501c0 3.243 2.935 6.007 7.202 6.007h43.622c3.584 0 7.526-2.765 7.526-6.007v-23.501c42.035-9.387 70.98-37.461 72.141-73.506 0.051-0.666 0.051-1.075 0.051-1.485 0-3.345-2.816-7.287-7.339-7.287v0h-62.618c-3.26 0-7.339 3.772-7.612 7.031-0.171 12.544-13.21 18.739-26.18 18.739-17.527 0-26.334-9.045-26.334-18.057 0-4.437 0-11.725 22.852-18.825l39.475-11.452c47.121-12.783 70.468-38.707 70.468-75.264-0.017-36.591-30.788-68.181-74.923-78.063zM817.425 211.012h-114.022c0 62.805 51.063 114.074 114.022 114.074v-114.074zM863.249 808.943c-83.524 0-150.818-68.591-150.818-152.115 0-83.78 67.294-152.252 150.818-152.252 84.924 0 152.218 68.471 152.218 152.252 0 83.524-67.294 152.115-152.218 152.115zM928.358 591.701c-7.629-6.588-19.217-6.588-26.658 0v0l-38.451 38.212-36.983-38.212c-7.851-6.588-19.473-6.588-26.573 0-7.782 7.936-7.782 19.49 0 26.59l38.11 38.554-38.11 37.052c-7.782 7.595-7.782 19.132 0 26.743 7.117 7.526 18.722 7.424 26.573 0l36.983-38.366 38.451 38.366c7.441 7.424 19.029 7.526 26.658 0 6.434-7.612 6.434-19.149-0.068-26.743l-38.144-37.052 38.144-38.554c6.502-7.1 6.502-18.654 0.068-26.59z" />
<glyph unicode="&#xe60f;" d="M860.553 685.875c-2.543 1.621-5.137 2.287-9.199 2.287h-680.004c-0.563 0-0.973-0.324-1.502-0.41l344.474-269.79 346.231 267.913zM531.866 353.86c-4.813-4.42-11.913-6.263-18.893-6.263-5.99 0-13.158 1.946-18.022 6.417l-349.884 274.859v-425.847c0-14.95 11.878-26.863 26.283-26.863h680.021c15.667 0 27.58 11.913 27.58 26.863v419.174l-347.085-268.339z" />
<glyph unicode="&#xe610;" d="M623.855 724.139c-108.442-9.506-208.742-25.003-267.605-84.77-85.879-87.211-110.899-209.476-69.444-300.971 0 0 134.366 167.936 353.092 246.46 0 0-306.381-256.375-419.789-419.891-4.164-4.318-6.793-10.24-6.793-16.828 0-13.397 10.769-24.405 24.115-24.405 8.397 0 15.855 4.42 20.105 11.179 0 0 57.566 86.852 94.054 124.16 91.75-66.099 231.646-46.524 328.26 51.541 106.001 107.708 130.816 461.653 130.816 461.653s-71.885-38.076-186.812-48.128z" />
<glyph unicode="&#xe611;" d="M834.697 252.962l-261.837 455.27c-3.311 6.707-7.475 12.954-13.073 18.569-26.368 26.487-69.239 26.487-95.625 0-4.762-4.83-8.738-10.308-11.708-15.889v0l-261.564-455.543c-4.113-6.007-7.39-12.885-9.404-20.48-9.66-36.301 11.742-73.557 47.804-83.285 6.571-1.775 13.090-2.372 19.627-2.167l523.298 0.051c25.054-1.724 50.074 10.547 63.556 33.792 12.8 22.409 11.554 49.169-1.075 69.683zM542.976 250.778c-9.011-8.55-19.593-12.851-31.59-12.851-12.186 0-22.938 4.301-31.829 12.851-8.96 8.653-13.551 18.79-13.551 30.805 0 11.861 4.591 22.238 13.551 30.942 8.892 8.789 19.644 13.141 31.829 13.141 11.981 0 22.562-4.352 31.59-13.141 9.028-8.721 13.517-19.098 13.517-30.942 0-12.015-4.471-22.153-13.517-30.805zM553.796 517.018c-2.287-10.701-5.205-23.142-8.687-37.478-3.26-13.449-7.1-30.345-11.264-50.637-4.335-20.139-8.704-45.21-13.466-74.906h-18.142c-4.693 29.986-9.233 55.057-13.568 75.127-4.215 19.917-7.987 36.727-11.264 50.193-2.97 12.442-5.7 24.559-8.226 36.489-2.492 11.998-3.772 20.804-3.772 26.812 0 12.049 4.437 22.391 13.414 30.976 9.028 8.653 19.746 12.954 32.324 12.954 12.442 0 23.159-4.284 32.273-12.954 9.25-8.585 13.841-18.927 13.841-30.976-0.017-6.4-1.143-14.865-3.465-25.6z" />
<glyph unicode="&#xe612;" d="M512.017 746.667c-165.052 0-298.684-133.666-298.684-298.667 0-164.932 133.632-298.667 298.684-298.667 164.915 0 298.65 133.734 298.65 298.667 0 165.001-133.734 298.667-298.65 298.667zM541.508 264.926h-63.010v69.53h63.010v-69.53zM629.094 483.482c-8.585-13.687-27.153-32.307-55.45-55.859-14.626-12.186-23.791-21.999-27.255-29.406-3.601-7.424-5.257-20.685-4.881-39.765h-63.010c-0.205 8.994-0.341 14.575-0.341 16.538 0 20.412 3.43 37.222 10.172 50.449 6.793 13.141 20.309 27.989 40.533 44.476 20.258 16.503 32.495 27.255 36.386 32.393 6.025 8.073 9.148 16.998 9.148 26.692 0 13.449-5.444 24.969-16.282 34.56-10.803 9.609-25.327 14.37-43.657 14.37-17.749 0-32.461-4.983-44.373-15.053-11.81-10.052-20.019-25.395-24.439-45.978l-63.898 7.902c1.946 29.559 14.404 54.665 37.786 75.298 23.313 20.685 53.965 30.976 91.955 30.976 39.834 0 71.697-10.394 95.249-31.232 23.654-20.907 35.413-45.141 35.413-72.823 0-15.343-4.335-29.867-13.056-43.537z" />
<glyph unicode="&#xe613;" d="M553.131 307.746v-26.795c0-4.284-3.43-7.765-7.731-7.765h-49.698c-4.267 0-7.697 3.465-7.697 7.765v25.668c-52.975 9.25-86.989 42.513-89.446 87.962-0.171 2.133 0.597 4.215 2.099 5.734 1.468 1.468 3.533 2.338 5.564 2.338h70.844c3.703 0 6.861-2.577 7.561-6.212 3.294-16.913 13.773-24.764 33.041-24.764 16.862 0 34.27 8.363 34.27 22.187 0 8.755-2.475 18.005-32.068 26.402l-35.994 9.728c-52.685 14.609-81.715 44.305-81.715 83.593 0 41.079 34.27 74.547 85.845 85.094v25.276c0 4.284 3.43 7.799 7.697 7.799h49.698c4.301 0 7.731-3.516 7.731-7.799v-25.446c47.684-10.257 79.889-42.923 81.357-83.132 0.171-0.529 0.205-1.092 0.205-1.792 0-4.198-3.499-7.578-7.731-7.578h-71.014c-4.062 0-7.492 3.209-7.629 7.322-0.666 14.473-15.838 20.941-30.635 20.941-19.132 0-29.133-10.103-29.133-20.070 0-5.615 0-13.244 26.061-20.907l44.271-13.005c52.651-14.865 79.292-43.537 79.292-85.299-0.017-41.028-34.628-76.237-85.043-87.245zM512.034 746.667c-164.983 0-298.701-133.666-298.701-298.633s133.717-298.701 298.701-298.701c164.881 0 298.633 133.734 298.633 298.701 0 164.983-133.751 298.633-298.633 298.633z" />
<glyph unicode="&#xe614;" d="M518.622 564.275c-11.81 0-22.613-2.099-32.495-6.502-9.933-4.369-18.381-10.223-25.788-17.613-7.373-7.68-12.885-16.521-17.152-26.846-4.25-10.308-6.383-21.402-6.912-33.536h157.389c0 27.136-6.793 47.94-19.951 62.601-13.141 14.507-31.573 21.897-55.091 21.897zM512.017 746.667c-164.881 0-298.684-133.769-298.684-298.667s133.803-298.667 298.684-298.667c164.949 0 298.65 133.769 298.65 298.667s-133.7 298.667-298.65 298.667zM647.424 459.093c-0.87-6.042-1.655-11.674-2.85-16.93h-210.432c0-6.707 0.529-13.193 1.195-19.507 0.922-6.11 1.997-12.203 3.379-18.227 3.072-11.674 7.236-22.34 12.681-31.659 5.649-9.335 12.544-17.101 20.975-23.62 7.031-5.666 15.002-9.813 23.757-12.834 8.789-2.918 18.534-4.574 29.491-4.574 8.567 0 16.111 0.683 22.869 1.877 6.793 1.348 13.295 3.157 19.319 5.513 5.922 2.321 11.469 5.052 16.316 8.277 4.983 3.209 9.643 6.588 14.302 10.377l19.746-39.373c-13.534-10.786-29.065-19.149-46.336-24.576-8.892-3.123-18.33-5.257-27.887-6.622-9.574-1.417-19.217-2.116-29.286-2.116-14.319 0-27.887 1.929-40.107 5.632-12.39 3.601-23.842 8.858-34.048 15.462-11.776 7.868-22.067 17.391-30.822 28.774-8.721 11.366-15.923 23.808-21.47 37.7-4.267 10.906-7.305 22.084-9.421 33.826-2.219 11.759-3.294 24.132-3.294 37.018 0 27.443 4.676 53.094 14.131 76.646 5.257 13.312 11.742 25.259 19.49 36.164 7.629 10.803 16.777 20.207 27.153 28.382 10.837 8.294 22.784 14.694 35.84 19.354 13.022 4.574 27.409 6.895 43.469 6.895 25.395 0 47.599-4.659 67.055-14.182 23.927-11.776 41.489-29.935 52.907-54.647 8.67-18.961 13.056-41.011 13.056-66.014-0.017-5.359-0.358-11.008-1.178-17.015z" />
<glyph unicode="&#xe615;" d="M512.017 746.667c-164.966 0-298.684-133.751-298.684-298.667 0-164.932 133.717-298.667 298.684-298.667 164.983 0 298.65 133.734 298.65 298.667 0 164.915-133.666 298.667-298.65 298.667zM560.879 231.458h-72.090v225.331h-29.901v60.331h101.99v-285.662zM520.090 550.093c-30.43 0-52.651 21.538-52.651 52.070 0 29.491 22.221 51.78 52.651 51.78 28.945 0 50.483-24.32 50.483-51.78s-20.787-52.070-50.483-52.070z" />
<glyph unicode="&#xe616;" d="M511.966 746.667c-164.949 0-298.633-133.7-298.633-298.667s133.683-298.667 298.633-298.667c165.035 0 298.701 133.7 298.701 298.667s-133.683 298.667-298.701 298.667zM643.55 369.749c12.971-12.868 12.971-34.082 0-46.967l-6.4-6.417c-12.902-12.919-34.116-12.919-47.002 0l-78.182 78.251-78.199-78.251c-12.902-12.919-33.98-12.919-46.916 0l-6.417 6.417c-12.902 12.885-12.902 34.082 0 46.967l78.217 78.251-78.199 78.199c-12.902 12.919-12.902 33.997 0 46.967l6.417 6.383c12.919 12.954 34.014 12.954 46.916 0l78.199-78.182 78.182 78.182c12.902 12.954 34.099 12.954 47.002 0l6.4-6.434c12.971-12.919 12.971-33.997 0-46.916l-78.199-78.199 78.182-78.251z" />
<glyph unicode="&#xe617;" d="M796.809 490.837h-33.536c-2.679 16.572-7.185 32.683-13.124 48.009l31.573 18.193c6.673 3.959 8.892 12.288 4.983 19.063l-29.781 51.473c-3.84 6.775-12.356 8.977-19.029 5.154l-32.768-19.063c-9.591 10.889-19.797 20.992-30.891 30.191l17.937 31.249c3.942 6.622 1.587 15.172-4.932 18.978l-51.814 29.713c-6.502 3.891-14.985 1.655-18.927-4.983l-18.603-32.358c-12.681 4.523-25.89 7.936-39.305 10.445v35.942c0 7.612-6.349 13.841-13.909 13.841h-59.665c-7.868 0-14.012-6.229-14.012-13.841v-35.789c-14.882-2.492-29.133-6.4-42.974-11.366l-19.2 33.126c-3.925 6.622-12.356 8.875-18.944 4.983l-51.729-29.713c-6.588-3.823-8.943-12.356-5.001-18.978l18.859-32.649c-10.701-8.943-20.446-18.586-29.559-29.201l-33.604 19.473c-6.758 3.823-15.121 1.621-19.115-5.154l-29.764-51.473c-3.789-6.758-1.434-15.087 5.137-19.063l32.478-18.756c-5.922-15.292-10.24-31.010-13.090-47.445h-37.205c-7.612 0-13.961-6.298-13.961-13.995v-59.58c0-7.68 6.349-13.909 13.961-13.909h37.598c2.765-15.804 7.117-31.113 12.698-45.585l-32.478-18.995c-6.656-3.703-8.994-12.1-5.137-18.722l29.764-51.627c3.994-6.775 12.356-9.028 19.115-5.154l33.604 19.473c9.114-10.513 18.961-20.241 29.559-29.184l-18.859-32.666c-3.959-6.622-1.587-15.241 5.001-18.893l51.729-29.867c6.605-3.738 15.138-1.57 18.944 5.052l19.2 33.212c13.841-5.052 28.092-8.875 42.974-11.435v-35.857c0-7.526 6.144-13.773 14.012-13.773h59.665c7.561 0 13.909 6.229 13.909 13.773v36.096c12.851 2.338 25.463 5.581 37.632 9.796l17.51-30.413c3.84-6.673 12.271-8.875 18.944-4.983l51.627 29.713c6.775 3.891 8.943 12.305 5.188 19.046l-16.708 28.689c11.025 8.96 21.094 18.756 30.464 29.252l31.983-18.432c6.656-3.891 15.087-1.536 18.995 5.052l29.798 51.661c3.738 6.605 1.417 15.155-5.171 18.978l-29.679 17.033c6.229 15.582 10.906 31.898 13.892 48.777h33.707c7.509 0 13.841 6.229 13.841 13.909v59.563c0.051 7.714-6.298 13.995-13.807 13.995zM513.946 302.49c-80.418 0-145.664 65.075-145.664 145.51 0 80.333 65.246 145.596 145.664 145.596 80.538 0 145.783-65.263 145.783-145.596 0-80.418-65.246-145.51-145.783-145.51z" />
<glyph unicode="&#xe618;" d="M765.611 573.286l-132.437 125.867c-4.796 3.447-9.745 5.461-15.872 5.461h-343.023c-13.175 0-23.228-10.121-23.228-22.255v-598.101c0-13.175 10.035-23.228 23.228-23.228h475.392c13.175 0 23.296 10.035 23.296 23.228v472.337c0 6.588-2.406 12.868-7.356 16.691zM296.448 106.445v552.772h295.305v-112.077c0-9.967 8.38-18.278 18.278-18.278h117.538v-422.417h-431.121zM439.501 845.158h-5.99c-54.989 0-99.721-41.728-99.721-92.996v-263.612c0-33.826 27.529-61.355 64.375-61.355 33.843 0 61.372 27.529 61.372 61.355v246.289c0 12.698-10.308 23.006-23.023 23.006s-23.023-10.308-23.023-23.006v-246.306c0-8.311-7.031-15.36-18.33-15.36-8.311 0-15.343 7.049-15.343 15.36v263.612c0 25.924 24.081 47.002 53.692 47.002h5.99c29.099 0 53.692-20.309 53.692-44.305v-67.345c0-12.698 10.308-23.006 23.023-23.006s23.023 10.308 23.023 23.006v67.345c0 49.818-44.749 90.317-99.738 90.317z" />
<glyph unicode="&#xe619;" d="M471.108 105.967c-8.192 25.378-12.766 52.378-12.766 80.452 0 93.15 49.015 174.882 122.453 221.372-35.294 28.809-42.581 70.007-8.926 133.615 1.434 2.697 2.594 5.359 3.942 8.124 17.749 28.928 29.491 58.231 36.676 87.689 0-0.307-0.034-0.87-0.034-1.143 8.653 16.947 18.739 17.579 24.747 45.158 4.284 19.49-7.356 26.3-14.985 37.376 0 3.209 0 6.485-0.068 9.728 0.307 16.845-0.205 33.792-2.014 51.098-1.69 17.101-4.113 34.321-6.929 51.661-2.918 17.852-8.124 33.946-15.189 48.333-24.183 53.214-73.694 79.804-145.493 80.469-0.887 0.017-1.724 0.102-2.645 0.102-0.239 0-0.529-0.051-0.768-0.051-0.29 0-0.495 0.051-0.819 0.051-0.87 0-1.758-0.085-2.679-0.085-71.799-0.666-121.293-27.255-145.493-80.469-7.066-14.387-12.237-30.481-15.155-48.333-2.85-17.34-5.239-34.577-6.997-51.661-1.758-17.323-2.287-34.27-1.963-51.098-0.068-3.243-0.102-6.502-0.068-9.762-7.629-11.042-19.268-17.835-14.985-37.342 6.042-27.58 16.094-28.211 24.781-45.158 0 0.273-0.034 0.751-0.068 1.024 7.202-29.457 18.944-58.675 36.676-87.569 1.365-2.765 2.492-5.427 3.942-8.124 52.907-100.028 4.949-144.725-94.618-172.885-124.962-35.191-154.249-111.77-190.242-190.583-21.828-47.77 8.994-71.731 40.533-71.731 110.114 0 248.781-0.256 358.929-0.256v0.7c2.748 0 5.444 0.068 8.192 0.068 2.714 0 5.444-0.068 8.158-0.068v-0.7h13.875zM744.585 382.874c-122.641 0-221.986-99.379-221.986-221.969 0-122.641 99.362-222.020 221.986-222.020 122.607 0 221.952 99.379 221.952 222.020 0 122.59-99.362 221.969-221.952 221.969zM773.973 63.3v-19.149c0-3.106-2.423-5.581-5.513-5.581h-35.584c-3.021 0-5.478 2.475-5.478 5.581v18.313c-37.905 6.673-62.259 30.481-64.017 63.044-0.102 1.468 0.427 2.953 1.468 4.096 1.058 1.007 2.526 1.621 4.045 1.621h50.671c2.679 0 4.915-1.86 5.41-4.471 2.355-12.083 9.882-17.715 23.62-17.715 12.066 0 24.542 5.99 24.542 15.889 0 6.246-1.792 12.868-22.921 18.876l-25.771 6.963c-37.717 10.428-58.47 31.71-58.47 59.853 0 29.389 24.542 53.333 61.423 60.894v18.125c0 3.038 2.458 5.564 5.478 5.564h35.584c3.089 0 5.513-2.509 5.513-5.564v-18.244c34.133-7.373 57.207-30.72 58.266-59.46 0.102-0.444 0.102-0.785 0.102-1.314 0-3.004-2.492-5.478-5.513-5.478h-50.773c-3.021 0-5.444 2.304-5.564 5.257-0.427 10.359-11.315 15.002-21.897 15.002-13.756 0-20.855-7.253-20.855-14.387 0-3.977 0-9.455 18.671-14.95l31.71-9.335c37.649-10.581 56.747-31.164 56.747-61.030 0-29.286-24.815-54.511-60.894-62.396z" />
<glyph unicode="&#xe61a;" d="M471.142 105.967c-8.226 25.378-12.766 52.378-12.766 80.452 0 93.15 49.015 174.882 122.419 221.372-35.294 28.809-42.581 70.007-8.926 133.615 1.434 2.697 2.594 5.359 3.977 8.124 17.715 28.928 29.491 58.231 36.676 87.689-0.034-0.307-0.034-0.87-0.034-1.143 8.619 16.947 18.705 17.579 24.747 45.158 4.284 19.49-7.39 26.3-15.019 37.376 0 3.209 0 6.485-0.034 9.728 0.324 16.845-0.239 33.792-2.048 51.098-1.69 17.101-4.113 34.321-6.929 51.661-2.918 17.852-8.090 33.946-15.155 48.333-24.183 53.214-73.694 79.804-145.527 80.469-0.905 0.017-1.741 0.102-2.645 0.102-0.239 0-0.529-0.051-0.734-0.051-0.29 0-0.546 0.051-0.819 0.051-0.922 0-1.758-0.085-2.679-0.085-71.834-0.666-121.327-27.255-145.527-80.469-7.066-14.387-12.203-30.481-15.155-48.333-2.85-17.34-5.205-34.577-6.997-51.661-1.724-17.323-2.287-34.27-1.963-51.098-0.034-3.243-0.068-6.502-0.034-9.762-7.663-11.042-19.268-17.835-15.019-37.342 6.042-27.58 16.145-28.211 24.781-45.158 0 0.273-0.034 0.751-0.034 1.024 7.168-29.457 18.944-58.675 36.642-87.569 1.365-2.765 2.526-5.427 3.977-8.124 52.873-100.028 4.915-144.725-94.618-172.885-124.979-35.191-154.231-111.77-190.225-190.583-21.862-47.77 8.994-71.731 40.499-71.731 110.148 0 248.815-0.256 358.963-0.256v0.7c2.714 0 5.444 0.068 8.192 0.068 2.714 0 5.444-0.068 8.124-0.068v-0.7h13.892zM744.567 382.874c-122.641 0-221.986-99.379-221.986-221.969 0-122.641 99.362-222.020 221.986-222.020 122.59 0 221.952 99.379 221.952 222.020 0 122.59-99.345 221.969-221.952 221.969zM876.169 98.321c0-12.8-10.445-23.279-23.313-23.279h-70.451v-39.356c-0.068-9.455-5.734-17.852-14.455-21.436-2.782-1.143-5.769-1.758-8.858-1.758-5.769 0-11.503 2.219-15.787 6.161l-141.124 116.275c-0.393 0.307-0.734 0.614-1.092 0.99-8.926 8.892-8.96 23.979-0.068 32.939 0.358 0.358 0.734 0.7 1.161 1.058l141.124 116.241c4.284 3.925 9.984 6.178 15.787 6.178 3.089 0 6.042-0.58 8.858-1.758 8.721-3.601 14.387-12.015 14.455-21.453v-39.305l70.485-0.034c12.834 0 23.279-10.445 23.279-23.279v-108.186z" />
<glyph unicode="&#xe61b;" d="M470.118 107.93c-8.175 25.293-12.715 52.241-12.715 80.282 0 92.877 48.896 174.473 122.163 220.791-35.209 28.757-42.479 69.888-8.909 133.376 1.451 2.697 2.577 5.325 3.959 8.055 17.681 28.894 29.406 58.112 36.591 87.484-0.017-0.256-0.051-0.87-0.051-1.126 8.602 16.93 18.654 17.562 24.678 45.107 4.284 19.422-7.356 26.214-14.967 37.257 0 3.191 0 6.485-0.051 9.694 0.324 16.794-0.222 33.724-2.014 50.961-1.69 17.118-4.079 34.287-6.929 51.541-2.901 17.835-8.073 33.86-15.121 48.247-24.149 53.094-73.54 79.616-145.169 80.282-0.887 0.017-1.758 0.119-2.645 0.119-0.273 0-0.546-0.068-0.768-0.068-0.29 0-0.529 0.068-0.819 0.068-0.887 0-1.741-0.102-2.645-0.102-71.663-0.666-121.054-27.187-145.186-80.282-7.049-14.37-12.186-30.413-15.138-48.247-2.833-17.271-5.222-34.423-6.963-51.541-1.741-17.237-2.287-34.167-1.98-50.961-0.051-3.209-0.102-6.502-0.051-9.745-7.629-10.991-19.2-17.783-14.967-37.205 6.042-27.529 16.094-28.177 24.713-45.107 0 0.256-0.034 0.785-0.051 1.041 7.202-29.355 18.91-58.556 36.591-87.398 1.382-2.731 2.509-5.376 3.959-8.055 52.753-99.84 4.932-144.435-94.413-172.493-124.655-35.123-153.856-111.565-189.781-190.191-21.811-47.65 8.977-71.526 40.414-71.526 109.909 0 248.235-0.256 358.161-0.256v0.614c2.697 0 5.427 0.137 8.158 0.137 2.714 0 5.427-0.137 8.141-0.137v-0.631c4.454 0.017 9.25 0.017 13.807 0.017zM309.521 612.233c-0.102 0.256-0.188 0.341-0.273 0.563 0.154-2.526 0.273-3.021 0.273-0.563zM949.333 192.256h-24.166c-2.082 12.186-5.308 23.74-9.694 34.987l22.886 13.175c4.813 2.867 6.502 8.909 3.721 13.636l-21.606 37.547c-2.765 4.762-8.892 6.383-13.756 3.789l-23.876-13.875c-6.827 7.953-14.217 15.223-22.391 21.948l13.090 22.545c2.782 4.932 1.195 10.991-3.618 13.875l-37.495 21.555c-4.847 2.645-10.957 1.246-13.756-3.686l-13.534-23.433c-9.131 3.106-18.671 5.666-28.553 7.612v25.941c0 5.564-4.454 10.103-10.018 10.103h-43.281c-5.513 0-9.984-4.557-9.984-10.103v-25.856c-10.786-1.792-21.18-4.642-31.283-8.124l-13.807 23.859c-2.799 4.932-9.028 6.332-13.756 3.686l-37.461-21.555c-4.83-2.884-6.519-8.943-3.738-13.875l13.739-23.706c-7.68-6.4-14.831-13.568-21.402-21.197l-24.388 14.302c-4.847 2.594-10.991 0.973-13.739-3.789l-21.623-37.547c-2.867-4.745-1.178-10.786 3.652-13.636l23.535-13.534c-4.25-11.042-7.424-22.528-9.37-34.628h-27.085c-5.53 0-10.103-4.42-10.103-9.899v-43.469c0-5.564 4.574-9.899 10.103-9.899h27.273c1.98-11.691 5.137-22.75 9.182-33.314l-23.535-13.585c-4.847-2.867-6.519-8.875-3.755-13.619l21.709-37.598c2.765-4.745 8.926-6.366 13.773-3.755l24.388 14.268c6.571-7.629 13.705-14.763 21.402-21.197l-13.739-23.689c-2.782-4.983-1.092-10.991 3.738-13.875l37.478-21.572c4.847-2.645 10.991-1.28 13.756 3.721l13.807 24.132c10.103-3.755 20.497-6.639 31.283-8.414v-25.873c0-5.513 4.454-10.103 9.984-10.103h43.315c5.53 0 10.018 4.591 10.018 10.103v25.941c9.455 1.929 18.569 4.198 27.341 7.202l12.681-22.067c2.884-4.676 9.028-6.366 13.756-3.499l37.461 21.641c4.847 2.611 6.537 8.909 3.772 13.585l-12.066 21.129c7.885 6.298 15.223 13.466 22.016 21.129l23.125-13.5c4.847-2.799 10.991-1.195 13.739 3.755l21.606 37.41c2.884 4.932 1.195 10.974-3.652 13.858l-21.555 12.305c4.454 11.401 7.851 23.245 10.103 35.482h24.388c5.53 0 10.103 4.335 10.103 9.899v43.469c-0.051 5.461-4.608 9.882-10.138 9.882zM744.38 55.535c-58.351 0-105.643 47.411-105.643 105.779 0 58.317 47.275 105.66 105.643 105.66 58.283 0 105.609-47.343 105.609-105.66 0.017-58.368-47.326-105.779-105.609-105.779z" />
<glyph unicode="&#xe61c;" d="M679.868 559.582l108.817-89.634v34.253c0 7.714 6.263 13.943 13.961 13.943h70.11v82.944h-70.11c-7.697 0-13.961 6.246-13.961 13.943v34.219l-108.817-89.668zM795.733 434.159c-5.205 0-10.325 1.997-14.148 5.513l-126.583 104.226c-0.341 0.29-0.649 0.58-0.956 0.887-8.021 7.97-8.021 21.487-0.051 29.525 0.324 0.324 0.666 0.631 1.007 0.922l126.583 104.243c3.823 3.516 8.909 5.53 14.148 5.53 2.731 0 5.41-0.512 7.953-1.57 7.817-3.226 12.885-10.769 12.937-19.217v-35.277h63.198c11.52 0 20.89-9.353 20.89-20.89v-96.973c0-11.503-9.37-20.873-20.89-20.873h-63.198v-35.311c-0.051-8.482-5.154-16.009-12.937-19.217-2.526-0.973-5.205-1.519-7.953-1.519zM863.966 461.653c5.188 0 10.308-1.997 14.165-5.513l126.532-104.226c0.358-0.29 0.666-0.58 0.973-0.887 8.004-7.97 8.038-21.487 0.085-29.508-0.341-0.324-0.666-0.649-1.058-0.922l-126.532-104.243c-3.84-3.533-8.96-5.53-14.165-5.53-2.748 0-5.41 0.512-7.936 1.57-7.834 3.226-12.885 10.786-12.954 19.217v35.26l-63.198 0.017c-11.503 0-20.855 9.37-20.855 20.89v96.973c0 11.503 9.353 20.873 20.89 20.873h63.181v35.311c0.068 8.482 5.12 16.009 12.954 19.217 2.475 0.956 5.171 1.502 7.919 1.502zM550.451 185.071c-17.118-17.067-45.551-17.51-62.942 0l-102.758 102.98 0.666-71.373c0.631-27.989-18.944-44.288-43.503-44.288-25.19 0-44.698 19.627-44.698 44.288v88.9c0 19.507 11.895 35.14 27.938 41.148 29.474 11.708 52.378 34.645 63.556 63.71 6.161 15.872 21.777 27.955 41.438 27.955h88.951c24.439 0 43.998-19.49 43.998-44.663 0-24.508-16.162-44.339-43.998-43.503l-71.424 0.7 102.775-102.878c17.545-17.51 17.186-45.943 0-62.976zM550.451 710.758c17.186-17.374 17.545-45.483 0-63.164l-102.775-102.775 71.356 0.683c27.904 0.802 44.066-19.046 44.066-43.401 0-25.122-19.575-44.681-44.066-44.681h-88.883c-19.712 0-35.157 11.844-41.438 27.938-11.52 29.491-34.321 52.343-63.556 63.539-15.855 5.939-28.058 21.879-28.058 41.284v88.986c0 24.371 19.627 44.186 44.817 44.186 24.559 0 44.151-16.213 43.503-44.186l-0.666-71.441 102.758 103.014c17.391 17.527 45.824 17.101 62.942 0.017zM25.088 710.758c17.033 17.084 45.38 17.51 62.959 0l102.639-103.014-0.597 71.441c-0.614 27.989 18.773 44.186 43.315 44.186 25.207 0 44.868-19.831 44.868-44.186v-88.986c0-19.405-12.015-35.072-27.938-41.284-29.577-11.588-52.514-34.577-63.556-63.539-6.195-15.821-21.965-27.938-41.421-27.938h-88.917c-24.508 0-44.1 19.558-44.1 44.681 0 24.354 16.094 44.186 44.1 43.401l71.424-0.683-102.775 102.758c-17.527 17.664-17.306 45.773 0 63.164zM25.088 185.071c-17.306 17.050-17.527 45.466 0 62.771l102.775 103.083-71.424-0.717c-27.989-0.836-44.1 18.995-44.1 43.366 0 25.31 19.593 44.715 44.1 44.715h88.917c19.456 0 35.089-11.776 41.421-27.853 11.435-29.423 34.321-52.361 63.556-63.71 15.701-5.837 27.938-21.641 27.938-41.148v-88.9c0.051-24.678-19.644-44.288-44.868-44.288-24.542 0-43.93 16.316-43.315 44.288l0.597 71.373-102.639-102.98c-17.459-17.51-45.943-17.067-62.959 0z" />
<glyph unicode="&#xe61d;" d="M684.766 556.151l107.23-88.303v33.741c0 7.595 6.144 13.739 13.722 13.739h69.103v81.715l-69.103 0.017c-7.578 0-13.722 6.161-13.722 13.739v33.707l-107.23-88.354zM798.908 432.589c-5.137 0-10.172 1.98-13.943 5.461l-124.689 102.673c-0.324 0.29-0.666 0.58-0.973 0.887-7.885 7.868-7.885 21.197-0.051 29.099 0.307 0.307 0.666 0.631 1.024 0.905l124.689 102.707c3.772 3.482 8.806 5.461 13.943 5.461 2.714 0 5.325-0.529 7.834-1.553 7.697-3.174 12.681-10.615 12.749-18.927v-34.748h62.276c11.315 0 20.548-9.233 20.548-20.582v-95.539c0-11.332-9.233-20.582-20.548-20.582h-62.276v-34.765c-0.068-8.329-5.052-15.753-12.749-18.927-2.458-1.041-5.12-1.57-7.834-1.57zM866.15 459.708c5.137 0 10.172-1.98 13.943-5.444l124.706-102.707c0.307-0.29 0.631-0.563 0.956-0.87 7.868-7.868 7.885-21.18 0.051-29.099-0.324-0.307-0.666-0.631-1.007-0.905l-124.706-102.707c-3.772-3.482-8.789-5.444-13.943-5.444-2.697 0-5.325 0.512-7.834 1.536-7.68 3.174-12.698 10.615-12.749 18.927v34.748l-62.242 0.017c-11.349 0-20.582 9.233-20.582 20.582v95.539c0 11.332 9.233 20.565 20.582 20.565h62.242v34.765c0.051 8.363 5.069 15.787 12.749 18.944 2.441 1.007 5.12 1.553 7.834 1.553zM241.698 347.102c-3.84 0-7.185-2.116-8.158-5.188l-10.411-31.642c-0.683-2.099-0.137-4.403 1.451-6.127 1.621-1.758 4.079-2.782 6.724-2.782h97.604c2.645 0 5.103 1.024 6.758 2.782 1.553 1.724 2.099 3.994 1.382 6.127l-10.291 31.625c-1.007 3.089-4.352 5.205-8.175 5.205h-5.171v167.117h5.171c3.823 0 7.168 2.133 8.175 5.188l10.291 31.625c0.7 2.133 0.171 4.403-1.382 6.127-1.655 1.758-4.113 2.765-6.758 2.765h-97.604c-2.662 0-5.103-1.007-6.724-2.765-1.587-1.724-2.116-4.011-1.451-6.127l10.411-31.625c0.973-3.072 4.318-5.188 8.158-5.188h6.349v-167.117h-6.349zM379.529 346.812c-3.789 0-7.134-2.133-8.158-5.188l-10.359-31.625c-0.7-2.116-0.171-4.403 1.434-6.127 1.604-1.758 4.079-2.799 6.724-2.799h97.587c2.628 0 5.137 1.041 6.707 2.782 1.638 1.741 2.167 4.011 1.468 6.144l-10.308 31.625c-1.041 3.055-4.386 5.188-8.175 5.188h-5.171v167.134h5.171c3.789 0 7.134 2.133 8.175 5.188l10.308 31.642c0.7 2.116 0.171 4.403-1.468 6.127-1.57 1.741-4.079 2.765-6.707 2.765h-97.587c-2.662 0-5.12-1.024-6.724-2.765-1.604-1.758-2.133-4.028-1.434-6.144l10.359-31.625c1.024-3.089 4.369-5.188 8.158-5.188h6.383v-167.134h-6.383zM99.072 348.706c-3.567 0-6.81-2.406-8.004-6.025l-10.377-31.625c-0.905-2.714-0.478-5.751 1.109-8.124 1.57-2.338 4.147-3.755 6.895-3.755h97.604c2.731 0 5.291 1.417 6.878 3.755 1.587 2.372 2.014 5.393 1.126 8.107l-10.325 31.642c-1.195 3.601-4.403 6.025-8.004 6.025h-5.154v163.345h5.154c3.601 0 6.81 2.389 8.004 6.007l10.325 31.625c0.887 2.765 0.461 5.786-1.126 8.124-1.587 2.355-4.13 3.755-6.878 3.755h-97.604c-2.748 0-5.325-1.399-6.895-3.755-1.587-2.355-2.014-5.393-1.109-8.124l10.377-31.642c1.195-3.601 4.437-5.99 8.004-5.99h6.332v-163.345h-6.332zM46.899 577.502h457.711c9.37 0 16.947 7.578 16.947 16.93v9.643c0 6.298-3.482 12.066-9.062 15.002l-198.605 104.823c-19.593 9.25-33.86 12.544-58.761 0.785-0.683-0.324-79.326-35.823-215.945-105.489-5.7-2.901-9.25-8.721-9.25-15.104v-9.643c0.034-9.37 7.595-16.947 16.964-16.947zM29.986 267.622v-18.705c0-7.373 5.973-13.346 13.363-13.346h468.087c7.356 0 13.363 5.973 13.363 13.346v18.705c0 7.373-6.007 13.346-13.363 13.346h-468.087c-7.39 0-13.363-5.973-13.363-13.346zM539.904 220.535l-521.677 1.007c-7.373 0-13.363-5.99-13.363-13.38v-18.671c0-7.39 5.99-13.363 13.363-13.363l521.677-1.007c7.39 0 13.38 5.973 13.38 13.363v18.688c0 7.373-5.99 13.363-13.38 13.363z" />
<glyph unicode="&#xe61e;" d="M898.389 526.131c-62.942 0-113.988 51.063-113.988 114.039h113.988v-114.039zM898.389 259.413h-113.988c0 62.993 51.046 114.022 113.988 114.022v-114.022zM533.982 353.536v-19.081c0-3.055-2.441-5.513-5.564-5.513h-35.379c-3.004 0-5.513 2.458-5.513 5.513v18.295c-37.717 6.605-61.969 30.293-63.71 62.669-0.085 1.536 0.461 2.987 1.502 4.062s2.475 1.707 4.011 1.707h50.432c2.628 0 4.864-1.894 5.41-4.471 2.321-12.032 9.779-17.613 23.484-17.613 12.015 0 24.439 5.905 24.439 15.787 0 6.212-1.741 12.817-22.784 18.807l-25.685 6.929c-37.564 10.394-58.197 31.573-58.197 59.563 0 29.235 24.371 53.129 61.116 60.621v18.039c0 3.038 2.509 5.547 5.513 5.547h35.379c3.123 0 5.564-2.509 5.564-5.547v-18.176c33.911-7.287 56.866-30.549 57.924-59.17 0.085-0.461 0.154-0.802 0.154-1.314 0-2.987-2.509-5.444-5.53-5.444h-50.551c-3.004 0-5.41 2.338-5.53 5.291-0.393 10.274-11.264 14.899-21.811 14.899-13.67 0-20.804-7.219-20.804-14.319 0-3.977 0-9.421 18.654-14.882l31.539-9.267c37.495-10.564 56.491-31.010 56.491-60.757 0.017-29.235-24.678-54.323-60.553-62.174zM123.494 526.131v114.039h114.057c0-62.993-51.081-114.039-114.057-114.039zM123.494 259.413v114.022c62.976 0 114.057-51.029 114.057-114.022h-114.057zM912.913 673.775h-801.843c-11.196 0-20.309-9.114-20.309-20.309v-407.62c0-11.23 9.114-20.309 20.309-20.309h801.843c11.247 0 20.343 9.079 20.343 20.309v407.62c0 11.196-9.079 20.309-20.343 20.309z" />
<glyph unicode="&#xe61f;" d="M830.174 691.917l-474.624 92.143c-49.135 9.54-96.905-22.699-106.428-71.851l-35.994-185.412h-32.836c-40.704 0-73.728-33.024-73.728-73.711v-10.155h630.938v10.155c0 40.704-33.007 73.711-73.728 73.711h-415.898l21.658 111.479 585.865-113.749-37.325-192.239c-5.939-30.669-35.738-50.807-66.441-44.834l-14.165 2.731v93.013h-630.938v-194.679c0-40.738 33.041-73.728 73.728-73.728h483.465c40.738 0 73.728 33.007 73.728 73.728v66.918l7.663-1.485c49.169-9.557 96.905 22.682 106.428 71.834l50.432 259.686c9.557 49.152-22.682 96.922-71.799 106.445zM868.506 592.026l-1.741-8.841-585.865 113.715 1.707 8.823c5.973 30.686 35.772 50.79 66.441 44.834l474.607-92.16c30.652-5.922 50.773-35.721 44.851-66.372z" />
<glyph unicode="&#xe620;" d="M766.481 261.171v-18.125c0-2.884-2.304-5.222-5.239-5.222h-33.587c-2.85 0-5.205 2.338-5.205 5.222v17.357c-35.789 6.298-58.795 28.706-60.45 59.46-0.068 1.417 0.427 2.833 1.434 3.874 0.99 1.024 2.355 1.587 3.772 1.587h47.872c2.492 0 4.625-1.775 5.12-4.198 2.202-11.401 9.318-16.759 22.323-16.759 11.383 0 23.177 5.666 23.177 15.019 0 5.905-1.673 12.169-21.641 17.869l-24.354 6.571c-35.601 9.847-55.245 29.901-55.245 56.525 0 27.716 23.177 50.364 58.027 57.463v17.152c0 2.884 2.338 5.257 5.205 5.257h33.587c2.918 0 5.239-2.372 5.239-5.257v-17.254c32.239-6.963 53.982-29.013 54.989-56.149 0.102-0.393 0.137-0.734 0.137-1.212 0-2.85-2.372-5.154-5.222-5.154h-47.974c-2.816 0-5.103 2.167-5.222 4.949-0.375 9.745-10.667 14.148-20.668 14.148-12.954 0-19.729-6.844-19.729-13.568 0-3.789 0-8.977 17.647-14.131l29.935-8.823c35.567-10.018 53.589-29.423 53.589-57.634-0.034-27.733-23.467-51.524-57.515-58.965zM738.697 557.807c-111.479 0-201.882-90.351-201.882-201.83s90.385-201.882 201.882-201.882c111.479 0 201.865 90.402 201.865 201.882-0.017 111.497-90.385 201.83-201.865 201.83zM426.786 640.734h-269.619c-29.867 0-54.084 24.201-54.084 54.101 0 29.867 24.218 54.101 54.084 54.101h269.619c29.867 0 54.101-24.235 54.101-54.101 0-29.901-24.218-54.101-54.101-54.101zM482.697 478.054h-269.619c-29.884 0-54.101 24.252-54.101 54.118s24.218 54.118 54.101 54.118h269.619c29.884 0 54.118-24.252 54.118-54.118s-24.235-54.118-54.118-54.118zM426.786 314.266h-269.619c-29.867 0-54.084 24.269-54.084 54.101 0 29.901 24.218 54.135 54.084 54.135h269.619c29.867 0 54.101-24.235 54.101-54.135 0-29.833-24.218-54.101-54.101-54.101zM482.697 151.603h-269.619c-29.884 0-54.101 24.252-54.101 54.135 0 29.867 24.218 54.101 54.101 54.101h269.619c29.884 0 54.118-24.235 54.118-54.101 0-29.884-24.235-54.135-54.118-54.135z" />
<glyph unicode="&#xe621;" d="M690.859 357.564h-33.758c-2.918 17.015-7.407 33.161-13.534 48.879l31.983 18.398c6.724 4.011 9.097 12.442 5.205 19.063l-30.174 52.463c-3.874 6.656-12.425 8.909-19.217 5.308l-33.348-19.388c-9.54 11.11-19.866 21.265-31.266 30.652l18.278 31.505c3.891 6.895 1.673 15.36-5.052 19.388l-52.378 30.123c-6.758 3.703-15.309 1.741-19.217-5.154l-18.893-32.734c-12.749 4.335-26.078 7.919-39.885 10.633v36.233c0 7.765-6.229 14.131-13.995 14.131h-60.501c-7.714 0-13.961-6.349-13.961-14.131v-36.113c-15.070-2.509-29.594-6.468-43.691-11.349l-19.285 33.348c-3.908 6.895-12.612 8.858-19.234 5.154l-52.343-30.123c-6.741-4.045-9.114-12.493-5.222-19.388l19.2-33.126c-10.735-8.943-20.719-18.944-29.884-29.611l-34.065 19.968c-6.758 3.618-15.343 1.348-19.2-5.308l-30.208-52.463c-4.011-6.622-1.655-15.053 5.086-19.063l32.887-18.91c-5.939-15.411-10.359-31.471-13.107-48.367h-37.854c-7.731 0-14.131-6.178-14.131-13.824v-60.723c0-7.765 6.4-13.824 14.131-13.824h38.093c2.748-16.316 7.185-31.778 12.834-46.524l-32.887-18.995c-6.775-4.011-9.114-12.407-5.239-19.029l30.327-52.531c3.874-6.622 12.476-8.875 19.234-5.239l34.065 19.934c9.182-10.667 19.149-20.634 29.884-29.611l-19.2-33.092c-3.891-6.963-1.519-15.36 5.222-19.388l52.361-30.14c6.758-3.703 15.343-1.775 19.217 5.205l19.285 33.707c14.114-5.239 28.621-9.284 43.691-11.742v-36.147c0-7.714 6.229-14.131 13.961-14.131h60.501c7.731 0 13.995 6.417 13.995 14.131v36.233c13.21 2.679 25.941 5.871 38.195 10.052l17.715-30.839c4.045-6.537 12.612-8.892 19.217-4.881l52.326 30.242c6.775 3.652 9.131 12.442 5.257 18.978l-16.845 29.508c11.025 8.789 21.265 18.825 30.754 29.508l32.307-18.859c6.758-3.908 15.36-1.655 19.2 5.239l30.191 52.258c4.011 6.895 1.673 15.326-5.086 19.371l-30.123 17.203c6.229 15.923 10.957 32.461 14.114 49.579h34.082c7.731 0 14.114 6.059 14.114 13.824v60.723c-0.034 7.629-6.417 13.807-14.131 13.807zM404.548 166.554c-81.527 0-147.575 66.219-147.575 147.78 0 81.459 66.048 147.61 147.575 147.61 81.425 0 147.541-66.133 147.541-147.61 0-81.545-66.116-147.78-147.541-147.78zM929.126 703.181h-18.961c-1.638 9.557-4.164 18.637-7.612 27.46l17.971 10.342c3.789 2.253 5.103 6.98 2.918 10.718l-16.947 29.474c-2.167 3.738-6.98 5.018-10.803 2.987l-18.739-10.906c-5.359 6.246-11.162 11.947-17.579 17.22l10.274 17.698c2.185 3.874 0.939 8.636-2.85 10.906l-29.423 16.93c-3.806 2.082-8.602 0.973-10.803-2.901l-10.615-18.398c-7.168 2.441-14.66 4.454-22.409 5.973v20.361c0 4.369-3.499 7.936-7.868 7.936h-33.997c-4.335 0-7.851-3.567-7.851-7.936v-20.292c-8.465-1.399-16.623-3.635-24.559-6.383l-10.837 18.739c-2.185 3.874-7.083 4.966-10.803 2.901l-29.406-16.93c-3.789-2.27-5.12-7.031-2.935-10.906l10.786-18.62c-6.025-5.035-11.639-10.65-16.794-16.64l-19.132 11.213c-3.806 2.031-8.619 0.768-10.786-2.987l-16.964-29.474c-2.253-3.721-0.939-8.465 2.867-10.718l18.483-10.633c-3.328-8.67-5.82-17.681-7.356-27.17h-21.248c-4.335 0-7.936-3.465-7.936-7.765v-34.116c0-4.369 3.601-7.765 7.936-7.765h21.402c1.553-9.165 4.028-17.852 7.202-26.146l-18.483-10.667c-3.806-2.253-5.12-6.98-2.953-10.701l17.033-29.508c2.167-3.721 6.997-4.983 10.803-2.953l19.132 11.196c5.154-5.99 10.769-11.588 16.794-16.64l-10.786-18.603c-2.185-3.908-0.853-8.636 2.935-10.906l29.423-16.93c3.806-2.082 8.619-1.007 10.803 2.918l10.837 18.944c7.936-2.953 16.077-5.205 24.559-6.605v-20.309c0-4.335 3.499-7.936 7.851-7.936h33.997c4.335 0 7.868 3.601 7.868 7.936v20.361c7.424 1.502 14.575 3.294 21.453 5.649l9.95-17.323c2.27-3.669 7.083-5.001 10.803-2.748l29.406 16.998c3.806 2.048 5.12 6.98 2.953 10.667l-9.472 16.589c6.195 4.932 11.947 10.581 17.271 16.589l18.142-10.598c3.806-2.202 8.636-0.939 10.786 2.953l16.964 29.355c2.253 3.874 0.939 8.619-2.867 10.889l-16.913 9.66c3.499 8.96 6.161 18.244 7.936 27.853h19.149c4.335 0 7.936 3.396 7.936 7.765v34.116c0 4.352-3.601 7.817-7.936 7.817zM768.256 595.866c-45.807 0-82.91 37.205-82.91 83.029 0 45.773 37.103 82.927 82.91 82.927 45.756 0 82.893-37.154 82.893-82.927 0.017-45.824-37.137-83.029-82.893-83.029z" />
<glyph unicode="&#xe622;" d="M678.059 140.407l107.981 101.939c1.57 1.553 2.714 3.43 3.686 5.359h-111.667v-107.298zM773.018 669.662h-397.602c-10.445 0-18.91-8.482-18.91-18.995v-499.2c0-10.513 8.448-18.995 18.91-18.995h268.51v132.284c0 9.438 7.629 17.067 17.067 17.067h130.918v368.862c0.017 10.496-8.516 18.978-18.893 18.978zM699.051 357.632h-253.303c-9.745 0-17.698 8.482-17.698 18.842 0 10.513 7.953 18.995 17.698 18.995h253.303c9.813 0 17.749-8.482 17.749-18.995 0-10.359-7.936-18.842-17.749-18.842zM699.051 448.563h-253.303c-9.745 0-17.698 8.38-17.698 18.859 0 10.428 7.953 18.995 17.698 18.995h253.303c9.813 0 17.749-8.567 17.749-18.995 0-10.479-7.936-18.859-17.749-18.859zM699.051 539.511h-253.303c-9.745 0-17.698 8.567-17.698 19.012 0 10.377 7.953 18.927 17.698 18.927h253.303c9.813 0 17.749-8.567 17.749-18.927 0-10.462-7.936-19.012-17.749-19.012zM375.415 703.795h315.153v48.23c0 10.513-8.448 18.995-18.91 18.995h-397.602c-10.445 0-18.91-8.482-18.91-18.995v-499.2c0-10.513 8.448-18.995 18.91-18.995h48.316v416.853c0 29.286 23.791 53.111 53.043 53.111z" />
<glyph unicode="&#xe623;" d="M795.238 245.129l-161.502 161.502c22.391 35.516 35.567 77.414 35.567 122.419 0 127.044-103.356 230.4-230.4 230.4s-230.4-103.356-230.4-230.4 103.356-230.4 230.4-230.4c45.005 0 86.903 13.175 122.419 35.567l161.485-161.502c10.001-10.001 23.108-15.002 36.215-15.002s26.214 5.001 36.198 15.002c20.019 20.002 20.019 52.412 0.017 72.414zM293.837 529.067c0 79.991 65.075 145.067 145.067 145.067s145.067-65.075 145.067-145.067-65.075-145.067-145.067-145.067-145.067 65.075-145.067 145.067z" />
<glyph unicode="&#xe624;" d="M839.151 621.363h-68.352v107.059c0 6.588-2.389 12.885-7.339 16.708l-132.454 125.85c-4.796 3.447-9.745 5.461-15.872 5.461h-343.023c-13.175 0-23.228-10.121-23.228-22.255v-232.841h-64.051c-54.903 0-99.584-44.663-99.584-99.584v-264.175c0-54.921 44.681-99.584 99.584-99.584h65.314v-80.009c0-14.131 11.452-25.6 25.6-25.6h470.921c14.148 0 25.6 11.469 25.6 25.6v80.009h66.884c54.903 0 99.584 44.663 99.584 99.584v264.192c0 54.921-44.681 99.584-99.584 99.584zM294.298 831.061h295.305v-112.077c0-9.967 8.397-18.278 18.278-18.278h117.538v-79.343h-431.121v209.698zM721.067 103.612h-419.703v160.017h419.703v-160.017zM832.717 471.467c-14.131 0-25.6 11.469-25.6 25.6s11.469 25.6 25.6 25.6 25.6-11.469 25.6-25.6-11.469-25.6-25.6-25.6zM662.118 160.87h-304.589c-11.725 0-21.282 10.206-21.282 22.835 0 12.459 9.574 22.665 21.282 22.665h304.589c11.793 0 21.333-10.206 21.333-22.665 0-12.646-9.54-22.835-21.333-22.835z" />
<glyph unicode="&#xe625;" d="M838.895 201.489l-166.093 166.093c31.795 45.926 50.551 101.53 50.551 161.485 0 156.843-127.607 284.45-284.45 284.45s-284.45-127.607-284.45-284.45 127.607-284.45 284.45-284.45c59.955 0 115.558 18.756 161.485 50.551l166.093-166.093c9.984-10.001 23.108-15.002 36.198-15.002s26.214 5.001 36.215 15.002c20.002 20.002 20.002 52.429 0 72.414zM239.787 529.067c0 109.807 89.327 199.117 199.117 199.117s199.117-89.31 199.117-199.117-89.327-199.117-199.117-199.117-199.117 89.31-199.117 199.117zM574.020 529.067c0-14.131-11.452-25.6-25.6-25.6h-83.917v-83.917c0-14.131-11.452-25.6-25.6-25.6s-25.6 11.469-25.6 25.6v83.917h-83.917c-14.148 0-25.6 11.469-25.6 25.6s11.452 25.6 25.6 25.6h83.917v83.917c0 14.131 11.452 25.6 25.6 25.6s25.6-11.469 25.6-25.6v-83.917h83.917c14.131 0 25.6-11.469 25.6-25.6z" />
<glyph unicode="&#xe626;" d="M512 737.126c-159.693 0-289.126-129.468-289.126-289.126s129.434-289.126 289.126-289.126c159.676 0 289.126 129.468 289.126 289.126s-129.451 289.126-289.126 289.126zM511.949 658.517c30.566 0 55.347-24.934 55.347-55.381 0-30.532-24.781-221.184-55.347-221.184-30.43 0-55.159 190.652-55.159 221.218 0 30.413 24.73 55.347 55.159 55.347zM511.983 259.977c-25.839 0-46.814 21.060-46.814 46.985 0 25.788 20.975 46.797 46.814 46.797 25.975 0 46.899-21.026 46.899-46.797-0.017-25.907-20.924-46.985-46.899-46.985z" />
<glyph unicode="&#xe627;" d="M657.924 682.797l98.588-101.589-384.312-372.958-98.588 101.589 384.312 372.958zM876.305 697.412c8.875 8.602-1.485 23.211-1.485 23.211l-73.933 76.186c0 0-14.558 10.53-23.159 2.185s-8.602-8.346-8.602-8.346l-60.211-58.419 98.577-101.581 60.211 58.419c0 0-0.273-0.256 8.602 8.346zM158.976 99.891c0 0 121.719 19.49 144.913 42.001s16.265 15.787 16.265 15.787l-98.611 101.581c0 0 6.537 6.332-16.265-15.787-22.784-22.118-46.302-143.582-46.302-143.582z" />
<glyph unicode="&#xe628;" d="M483.652 556.425l-0.341-352.853c-0.017-9.438 7.629-17.084 17.067-17.084h16.759c9.421 0 17.050 7.629 17.067 17.050l0.341 352.853c0.017 9.438-7.629 17.084-17.067 17.084h-16.759c-9.421 0-17.067-7.629-17.067-17.050zM365.244 573.474h-16.845c-10.103 0-18.005-8.738-16.981-18.807l36.011-352.853c0.887-8.704 8.226-15.326 16.981-15.326h16.845c10.103 0 18.005 8.738 16.981 18.807l-36.011 352.853c-0.905 8.704-8.226 15.326-16.981 15.326zM638.464 558.165l-36.301-352.853c-1.041-10.069 6.861-18.807 16.981-18.807h16.862c8.755 0 16.077 6.622 16.981 15.326l36.301 352.853c1.041 10.069-6.861 18.807-16.981 18.807h-16.862c-8.755-0.017-16.077-6.639-16.981-15.326zM830.942 681.66c-4.83 5.513-11.793 8.67-19.132 8.67h-164.25v55.552c0 35.925-29.235 65.161-65.161 65.161h-153.958c-35.925 0-65.161-29.235-65.161-65.161v-55.552h-159.966c-7.339 0-14.302-3.157-19.132-8.67-4.83-5.495-7.049-12.834-6.093-20.105l74.837-571.102c1.655-12.663 12.442-22.135 25.242-22.135h458.803c12.783 0 23.586 9.472 25.242 22.153l74.854 571.119c0.939 7.236-1.28 14.575-6.127 20.070zM414.174 745.882c0 7.868 6.4 14.268 14.268 14.268h153.958c7.868 0 14.268-6.4 14.268-14.268v-55.552h-182.494v55.552zM714.633 119.211h-414.14l-68.181 520.209h550.485l-68.164-520.209z" />
<glyph unicode="&#xe629;" d="M906.138 701.696h-18.978c-1.638 9.557-4.164 18.637-7.612 27.46l17.971 10.342c3.789 2.253 5.103 6.98 2.918 10.718l-16.947 29.474c-2.167 3.738-6.98 5.018-10.803 2.987l-18.739-10.906c-5.359 6.246-11.162 11.947-17.579 17.22l10.274 17.698c2.185 3.874 0.939 8.636-2.85 10.906l-29.423 16.93c-3.806 2.082-8.602 0.973-10.803-2.901l-10.581-18.398c-7.168 2.441-14.66 4.454-22.409 5.973v20.361c0 4.369-3.499 7.936-7.868 7.936h-33.997c-4.335 0-7.851-3.567-7.851-7.936v-20.292c-8.465-1.399-16.623-3.635-24.542-6.383l-10.837 18.739c-2.185 3.874-7.083 4.966-10.803 2.901l-29.406-16.93c-3.789-2.27-5.12-7.031-2.935-10.906l10.786-18.62c-6.025-5.035-11.639-10.65-16.794-16.64l-19.132 11.213c-3.806 2.031-8.619 0.768-10.786-2.987l-16.964-29.474c-2.253-3.721-0.939-8.465 2.867-10.718l18.483-10.633c-3.328-8.67-5.82-17.681-7.356-27.17h-21.299c-4.335 0-7.936-3.465-7.936-7.765v-34.116c0-4.369 3.601-7.765 7.936-7.765h21.402c1.553-9.165 4.028-17.852 7.202-26.146l-18.466-10.615c-3.806-2.253-5.12-6.98-2.953-10.701l17.033-29.508c2.167-3.721 6.997-4.983 10.803-2.953l19.132 11.196c5.154-5.99 10.769-11.588 16.794-16.64l-10.786-18.603c-2.185-3.908-0.853-8.636 2.935-10.906l29.423-16.93c3.806-2.082 8.619-1.007 10.803 2.918l10.837 18.944c7.936-2.953 16.077-5.205 24.559-6.605v-20.309c0-4.335 3.499-7.936 7.851-7.936h33.997c4.335 0 7.868 3.601 7.868 7.936v20.361c7.424 1.502 14.575 3.294 21.453 5.649l9.95-17.323c2.27-3.669 7.083-5.001 10.803-2.748l29.406 16.998c3.806 2.048 5.12 6.98 2.953 10.667l-9.472 16.589c6.195 4.932 11.947 10.581 17.271 16.589l18.142-10.598c3.806-2.202 8.636-0.939 10.786 2.953l16.964 29.355c2.253 3.874 0.939 8.619-2.867 10.889l-16.913 9.66c3.499 8.96 6.161 18.244 7.936 27.853h19.149c4.335 0 7.936 3.396 7.936 7.765v34.116c0 4.301-3.584 7.765-7.936 7.765zM745.267 606.225c-39.27 0-71.083 31.898-71.083 71.185 0 39.236 31.812 71.1 71.083 71.1 39.219 0 71.066-31.863 71.066-71.1 0-39.287-31.846-71.185-71.066-71.185zM728.286 473.6v-303.019h-432.538v554.854h250.948c3.857 15.991 9.506 31.249 16.862 45.534h-290.611c-12.561 0-22.733-10.206-22.733-22.835v-600.269c0-12.629 10.172-22.835 22.733-22.835h478.106c12.493 0 22.733 10.206 22.733 22.835v327.083c-9.335-1.314-18.807-2.219-28.501-2.219-5.734 0-11.383 0.393-16.998 0.87zM357.53 484.506h168.055c11.793 0 21.333 10.206 21.333 22.835 0 12.459-9.54 22.665-21.333 22.665h-168.055c-11.725 0-21.282-10.206-21.282-22.665 0-12.646 9.574-22.835 21.282-22.835zM357.53 389.939h304.589c11.793 0 21.333 10.308 21.333 22.835 0 12.595-9.54 22.665-21.333 22.665h-304.589c-11.725 0-21.282-10.069-21.282-22.665 0-12.544 9.574-22.835 21.282-22.835zM357.53 288.427h304.589c11.793 0 21.333 10.308 21.333 22.767 0 12.561-9.54 22.869-21.333 22.869h-304.589c-11.725 0-21.282-10.308-21.282-22.869 0-12.459 9.574-22.767 21.282-22.767z" />
<glyph unicode="&#xe62a;" d="M441.566 151.501c-17.323 0-33.911 7.407-45.466 20.497l-170.001 192.256c-22.221 25.122-19.866 63.488 5.257 85.709 25.105 22.204 63.505 19.866 85.709-5.274l117.060-132.369 262.093 404.48c18.244 28.143 55.825 36.181 83.985 17.937 28.143-18.244 36.164-55.842 17.937-83.968l-305.613-471.569c-10.325-15.94-27.511-26.112-46.438-27.529-1.502-0.119-3.021-0.171-4.523-0.171z" />
</font>
</defs>
</svg>
