<?xml version="1.0" standalone="no"?>
<!DOCTYPE svg PUBLIC "-//W3C//DTD SVG 1.1//EN" "http://www.w3.org/Graphics/SVG/1.1/DTD/svg11.dtd" >
<svg xmlns="http://www.w3.org/2000/svg">
<metadata></metadata>
<defs>
<font id="citisansregular" horiz-adv-x="1200" >
<font-face units-per-em="2048" ascent="1638" descent="-410" />
<missing-glyph horiz-adv-x="516" />
<glyph unicode=" "  horiz-adv-x="516" />
<glyph unicode="&#x09;" horiz-adv-x="516" />
<glyph unicode="&#xa0;" horiz-adv-x="516" />
<glyph unicode="!" horiz-adv-x="612" d="M254 383q3 249 11.5 423.5t25.5 274.5l63 383h260l-63 -383q-17 -100 -65 -274.5t-128 -423.5h-104zM131 145q0 34 13 62.5t35 50.5q22 21 50 33t60 12q33 0 62 -13.5t51 -36.5q20 -21 32 -49t12 -59q0 -33 -14 -62t-37 -51q-21 -20 -48 -31t-58 -11q-34 0 -62.5 12.5 t-50.5 34.5q-21 21 -33 48.5t-12 59.5z" />
<glyph unicode="&#x22;" horiz-adv-x="938" d="M850 999h-154l37 465h236zM459 999h-152l35 465h236z" />
<glyph unicode="#" horiz-adv-x="1382" d="M1321 909h-236l-84 -319h175v-180h-222l-114 -410h-195l113 410h-232l-110 -410h-197l113 410h-160v180h209l84 319h-178v183h225l102 372h193l-98 -372h229l100 372h193l-96 -372h186v-183zM895 909h-236l-84 -319h234z" />
<glyph unicode="$" horiz-adv-x="1382" d="M774 227q44 9 77.5 23.5t55.5 38.5q37 40 37 108q0 24 -10 46.5t-27 43.5q-15 19 -34 36t-39 34zM793 1231q-37 -5 -76 -19.5t-67 -45.5q-17 -20 -27.5 -46.5t-10.5 -62.5q0 -24 10 -44t27 -38t39.5 -34t46.5 -32zM571 6q-47 2 -102.5 11t-109.5 23q-48 13 -88 28.5 t-66 35.5l131 220q28 -23 61.5 -40t69.5 -30t73 -20.5t72 -10.5l76 424l-115 70q-56 34 -95 72t-64 79q-21 35 -31 69t-10 67q0 88 32 158q44 99 142 166q54 38 124.5 65t157.5 41l31 165h162l-31 -159q52 -4 95.5 -13t81.5 -21q70 -23 118 -56l-112 -211q-23 19 -51 34 t-57 27q-53 22 -112 33l-73 -412l86 -49q63 -36 108 -75.5t72 -85.5q41 -68 41 -154q0 -113 -47 -199q-23 -42 -56 -77t-76 -64q-54 -35 -122 -60t-150 -39l-39 -215h-161z" />
<glyph unicode="%" horiz-adv-x="1825" d="M670 1124q0 54 -28 93q-19 26 -48.5 40.5t-71.5 14.5q-32 0 -61 -9t-54 -26q-50 -34 -78 -93q-11 -25 -17.5 -51.5t-6.5 -54.5q0 -76 46 -117q39 -34 102 -34q32 0 60.5 9t52.5 25q46 30 74 82q14 27 22 58t8 63zM1495 387q0 62 -36 104q-19 22 -47 34t-66 12 q-47 0 -86.5 -20t-68.5 -52t-45 -74t-16 -88q0 -65 35 -106q19 -21 46.5 -33t64.5 -12q45 0 83 17.5t67 46.5q32 32 50.5 76t18.5 95zM1681 414q0 -58 -15 -111t-43 -101q-30 -51 -72 -93t-93 -71q-48 -28 -102 -43t-111 -15q-69 0 -125 21.5t-95 59.5q-40 39 -61.5 93 t-21.5 120q0 50 11.5 96.5t33.5 90.5q29 57 73 105t99 81q48 29 102.5 45.5t114.5 16.5q63 0 114.5 -18.5t90.5 -51.5q48 -40 74 -98t26 -127zM393 0h-200l1120 1313h-506q18 -23 33.5 -65t15.5 -95q0 -68 -20.5 -130t-57.5 -116q-35 -51 -81.5 -89.5t-102.5 -64.5 q-40 -18 -83 -28t-89 -10q-67 0 -121 20t-93 56q-44 41 -67.5 97.5t-23.5 125.5q0 54 15 105t41 97q27 48 65 88t85 70q51 33 109 51.5t121 18.5h1061z" />
<glyph unicode="&#x26;" horiz-adv-x="1446" d="M700 948q57 24 103 52.5t78 63.5q27 30 42 65t15 79q0 62 -41 92q-30 23 -82 23q-41 0 -72 -14t-53 -37q-24 -26 -36.5 -60t-12.5 -69q0 -37 9.5 -72.5t20.5 -62.5q13 -32 29 -60zM563 713q-92 -39 -150.5 -89t-87.5 -111q-28 -59 -28 -130q0 -108 75 -165 q63 -48 171 -48q68 0 129 21t121 67zM1143 1221q0 -55 -15 -101.5t-42 -86.5q-25 -38 -59.5 -70.5t-74.5 -60.5t-83.5 -52t-88.5 -45l187 -389q36 43 62 76.5t47 66.5t40.5 69t42.5 83l207 -37q-35 -70 -65.5 -125t-65 -104t-77 -97.5t-101.5 -105.5q49 -52 127 -52 q14 0 25 1t24 2.5t31.5 4t46.5 5.5l-39 -187q-9 -6 -27 -11q-15 -5 -40.5 -8t-65.5 -3q-86 0 -142 23q-30 13 -57 33.5t-55 49.5q-48 -33 -94.5 -56t-95.5 -37t-100.5 -20.5t-109.5 -6.5q-80 0 -153 20t-133 60q-36 25 -65.5 56.5t-49.5 70.5q-19 36 -29 78.5t-10 90.5 q0 121 61 216q51 79 146 147t237 135q-14 29 -28 61t-25 66t-17.5 68t-6.5 65q0 48 12.5 90.5t34.5 80.5q27 46 66 83.5t87 64.5q49 28 104.5 43t112.5 15q126 0 209 -57q50 -35 77.5 -88t27.5 -125z" />
<glyph unicode="'" horiz-adv-x="496" d="M414 999h-152l35 465h235z" />
<glyph unicode="(" horiz-adv-x="770" d="M465 -410q-133 111 -215 235.5t-121 258.5q-20 66 -29 133t-9 136q0 89 15 179q20 121 66 239t121 233q82 125 200 240.5t281 219.5h184q-156 -108 -257.5 -229.5t-164.5 -250.5q-54 -109 -84.5 -221t-49.5 -224q-11 -69 -17.5 -135t-6.5 -132q0 -76 9.5 -149t30.5 -145 q30 -100 86 -197t145 -191h-184z" />
<glyph unicode=")" horiz-adv-x="770" d="M-188 -410q201 169 324 342.5t184 361.5q41 123 58 253.5t17 273.5q0 93 -15 181.5t-51 173.5q-32 76 -83.5 148t-126.5 140h184q93 -75 160 -155.5t113 -166.5q54 -103 79 -209.5t25 -217.5q0 -143 -31.5 -273.5t-94.5 -254.5q-84 -164 -222 -311.5t-336 -285.5h-184z " />
<glyph unicode="*" horiz-adv-x="653" d="M508 891l-51 158l-54 -158l-59 -80l-166 119l60 82l133 98h-164l-94 31l61 196l96 -32l133 -99l-51 158v100h205v-98l-49 -160l133 99l96 32l62 -196l-94 -33h-164l133 -96l59 -82l-166 -119z" />
<glyph unicode="+" horiz-adv-x="1382" d="M791 530v-391h-201v391h-391v201h391v391h201v-391h391v-201h-391z" />
<glyph unicode="," horiz-adv-x="516" d="M-84 -236q48 31 88 59t68.5 53.5t44.5 48.5t16 44q0 10 -1.5 16t-4.5 15q-42 17 -61 44.5t-19 68.5q0 34 10.5 65t30.5 56q24 32 59.5 50.5t79.5 18.5q35 0 64 -15t49 -43q16 -22 24.5 -50.5t8.5 -63.5q0 -39 -10 -75.5t-29 -71.5q-26 -46 -64.5 -87t-89.5 -79 q-43 -32 -95 -71t-112 -79z" />
<glyph unicode="-" horiz-adv-x="653" d="M33 330l39 235h546l-38 -235h-547z" />
<glyph unicode="." horiz-adv-x="516" d="M47 145q0 32 12 60.5t33 49.5q22 23 51 35.5t62 12.5q30 0 57.5 -11.5t48.5 -31.5q23 -22 37 -51.5t14 -63.5q0 -29 -10.5 -54.5t-27.5 -45.5q-22 -26 -52.5 -40.5t-66.5 -14.5q-35 0 -64 13t-51 36q-20 21 -31.5 48t-11.5 58z" />
<glyph unicode="/" horiz-adv-x="1116" d="M367 0h-203l586 1464h202z" />
<glyph unicode="0" d="M90 416q0 98 11 201t35 204q32 132 87.5 249.5t142.5 205.5q77 77 180 122.5t236 45.5q207 0 307 -109q97 -104 97 -311q0 -112 -10.5 -226.5t-35.5 -223.5q-31 -138 -90 -257t-154 -201q-74 -64 -171 -100t-223 -36q-89 0 -157.5 23.5t-119.5 66.5q-68 58 -101.5 146 t-33.5 200zM360 453q0 -134 46 -197q39 -53 110 -53q66 0 118.5 24.5t93.5 66.5q31 32 55.5 72.5t43.5 86.5t33 96.5t24 102.5q18 94 24.5 186.5t6.5 167.5q0 124 -55 177q-39 38 -110 38q-64 0 -115.5 -30.5t-92.5 -81.5q-47 -59 -80 -137.5t-55 -163.5q-13 -50 -22 -99.5 t-14.5 -95.5t-8 -86.5t-2.5 -73.5z" />
<glyph unicode="1" d="M698 0h-268l188 997l-290 -139l39 260q78 34 144 68t123 69q146 89 216 179h119z" />
<glyph unicode="2" d="M516 231h526l-45 -231h-954v82l584 661q51 59 92.5 106t70.5 88t44.5 80t15.5 83q0 63 -46 94q-50 35 -153 35q-124 0 -229 -146l-184 119q52 112 151 173q114 69 287 69q57 0 111 -7.5t102 -24.5q47 -16 86 -39.5t69 -56.5q35 -38 54.5 -89t19.5 -117 q0 -54 -16.5 -106.5t-46.5 -106.5q-38 -68 -93 -138.5t-122 -148.5z" />
<glyph unicode="3" d="M1081 1104q0 -60 -22 -117.5t-61 -107.5q-31 -39 -70 -70.5t-84 -52.5q162 -84 162 -277q0 -140 -46 -239q-57 -121 -182 -186q-143 -74 -375 -74q-210 0 -352 145l129 217q115 -139 256 -139q112 0 192 52q58 37 89 102q24 51 24 116q0 71 -48 113q-68 61 -234 61 l41 215q185 0 259 79q48 53 48 138q0 75 -47 110q-42 32 -129 32q-100 0 -201 -76l-129 155q67 67 149 102q101 42 226 42q57 0 109.5 -10t98.5 -30q43 -19 78 -46t61 -62q28 -38 43 -86t15 -106z" />
<glyph unicode="4" d="M973 582h145l-39 -209h-145l-68 -373h-270l72 373h-650l29 153l963 910h123zM403 582h304l63 346z" />
<glyph unicode="5" d="M1092 1202h-525l-43 -239q32 14 68.5 20t77.5 6q47 0 91 -10.5t84 -30.5q84 -41 137 -115q29 -40 44.5 -88t15.5 -102q0 -88 -11 -163t-32 -140q-69 -205 -246 -294q-133 -66 -327 -66q-48 0 -91 7t-83 21q-87 30 -154 94l109 224q20 -24 49.5 -46.5t63 -40t69 -28 t66.5 -10.5q54 0 99.5 15.5t82.5 42.5q38 28 66 66.5t46 84.5q35 88 35 188q0 43 -15 77t-41 57q-29 26 -69 39t-86 13q-65 0 -121.5 -26t-109.5 -82l-106 49l120 698h777z" />
<glyph unicode="6" d="M1042 1294q-107 -38 -249 -153q-76 -60 -135.5 -124t-108.5 -130q35 11 71 16.5t78 5.5q96 0 172.5 -28t128.5 -82q44 -45 67.5 -106.5t23.5 -139.5q0 -67 -14.5 -130.5t-40.5 -122.5q-33 -72 -83 -132t-116 -104q-63 -42 -137 -65.5t-158 -23.5q-201 0 -306 93 q-118 105 -118 325q0 166 58 322q64 173 200 342q65 80 134.5 144t140.5 112.5t141 81t135 49.5zM379 365q0 -78 37 -119q43 -49 139 -49q39 0 72.5 11t61.5 31q32 22 56 53t41 67q35 75 35 157q0 84 -48 130q-44 42 -118 42q-88 0 -150 -42q-54 -37 -87 -99 q-20 -39 -29.5 -85t-9.5 -97z" />
<glyph unicode="7" d="M150 0q112 218 337 569q87 135 188.5 288t221.5 327h-653l43 239h985v-114q-103 -138 -194.5 -272t-176.5 -268q-126 -198 -232.5 -389t-199.5 -380h-319z" />
<glyph unicode="8" d="M901 764q81 -61 123 -135q45 -78 45 -172q0 -151 -62 -257q-63 -110 -193 -166q-124 -54 -310 -54q-65 0 -124.5 12t-110.5 36q-44 21 -79 50.5t-61 67.5q-24 37 -37.5 82.5t-13.5 99.5q0 66 16 127.5t47 116.5q41 72 104 128t146 93q-65 55 -96 119q-31 65 -31 145 q0 40 8.5 76.5t24.5 68.5q29 59 77.5 104.5t109.5 76.5q60 30 126 45.5t133 15.5q105 0 198 -38q48 -20 88 -49t67 -68q23 -32 35 -69.5t12 -82.5q0 -52 -16.5 -104t-45.5 -100q-33 -54 -79 -98t-101 -71zM711 881q82 65 122 120q41 56 41 105q0 31 -16.5 54t-41.5 37 q-20 12 -44 18t-47 6q-54 0 -95 -17t-64 -50q-27 -37 -27 -97q0 -54 43 -97t129 -79zM627 662q-60 -12 -113.5 -42t-93.5 -73q-36 -39 -57 -87t-21 -102q0 -38 16.5 -67.5t45.5 -49.5q26 -19 59.5 -28.5t68.5 -9.5q73 0 128 24t89 69q46 61 46 155q0 61 -40 113 q-42 56 -128 98z" />
<glyph unicode="9" d="M197 123q31 10 68 29t76 45t79.5 57t79.5 64q63 54 115 109.5t81 100.5q-34 -11 -73 -15.5t-82 -4.5q-85 0 -156 28t-124 79q-52 51 -81.5 119t-29.5 149q0 65 11 123.5t31 111.5q32 84 87.5 148.5t133.5 107.5q61 34 134 52t158 18q104 0 183 -31t133 -89t81.5 -138 t27.5 -180q0 -157 -54 -309q-61 -169 -187 -326q-122 -155 -264 -253.5t-310 -146.5zM420 920q0 -85 37 -134q42 -57 127 -57q73 0 124.5 22t86.5 61q35 41 52 98t17 126q0 50 -15 88t-44 62q-43 35 -115 35q-69 0 -119 -23.5t-84 -65.5t-50.5 -95.5t-16.5 -116.5z" />
<glyph unicode=":" horiz-adv-x="516" d="M147 766q0 32 12.5 60.5t34.5 49.5t50.5 33.5t60.5 12.5t61 -13t51 -35q21 -21 33.5 -49t12.5 -59q0 -35 -15 -66t-40 -53q-21 -18 -47.5 -28.5t-55.5 -10.5q-34 0 -62.5 12.5t-50.5 34.5q-21 21 -33 50t-12 61zM45 145q0 30 10.5 56.5t28.5 47.5q22 25 53 39.5t66 14.5 q30 0 57.5 -11.5t48.5 -31.5q23 -22 37 -51.5t14 -63.5q0 -29 -11 -55.5t-30 -47.5q-22 -24 -51.5 -38t-64.5 -14q-33 0 -61.5 12t-50.5 33t-34 49.5t-12 60.5z" />
<glyph unicode=";" horiz-adv-x="516" d="M-78 -236q48 31 88 59t68.5 53.5t44.5 48.5t16 44q0 10 -1.5 16t-4.5 15q-42 17 -61 44.5t-19 68.5q0 43 17 81.5t47 64.5q23 20 52.5 32t63.5 12q37 0 67.5 -17t50.5 -49q28 -44 28 -106q0 -67 -31 -131q-25 -51 -66.5 -96t-95.5 -86q-43 -32 -94.5 -71t-111.5 -79z M158 766q0 29 10.5 56t28.5 47q22 25 52.5 39t65.5 14t66 -15t54 -41q18 -20 28 -46t10 -54q0 -31 -12 -59t-32 -49q-22 -23 -51 -36.5t-63 -13.5q-39 0 -71.5 16.5t-53.5 45.5q-15 20 -23.5 44.5t-8.5 51.5z" />
<glyph unicode="&#x3c;" horiz-adv-x="1382" d="M1184 137l-985 398v192l985 395v-219l-688 -272l688 -273v-221z" />
<glyph unicode="=" horiz-adv-x="1382" d="M225 305v201h983v-201h-983zM225 756v200h983v-200h-983z" />
<glyph unicode="&#x3e;" horiz-adv-x="1382" d="M258 358l688 273l-688 272v219l985 -395v-192l-985 -398v221z" />
<glyph unicode="?" horiz-adv-x="928" d="M248 145q0 29 9 54.5t26 45.5q22 27 54 42.5t69 15.5q31 0 59 -12.5t50 -33.5q22 -22 35 -50.5t13 -61.5q0 -32 -12 -60t-34 -49t-50.5 -33.5t-60.5 -12.5q-35 0 -65 13.5t-52 36.5q-20 21 -30.5 47.5t-10.5 57.5v0zM297 444q-2 8 -4.5 25.5t-4 37t-2.5 37.5t-1 27 q0 32 9 62t23.5 59t33.5 56.5t40 52.5q22 26 61.5 66t98.5 96q69 63 102 111t33 102q0 61 -47 87q-39 23 -117 23q-87 0 -198 -90l-70 195q38 26 81.5 45.5t91.5 32.5q82 22 181 22q124 0 211 -55q54 -35 85.5 -89t31.5 -128q0 -58 -11.5 -104.5t-34.5 -87.5 q-31 -55 -79.5 -102.5t-114.5 -101.5q-47 -38 -85 -75t-65 -80.5t-42 -97.5t-15 -126h-192z" />
<glyph unicode="@" horiz-adv-x="1579" d="M1597 946q0 -72 -15.5 -144.5t-45.5 -140.5q-32 -71 -78.5 -130t-108.5 -98q-44 -28 -94.5 -43t-107.5 -15q-131 0 -205 78q-46 -46 -105 -69q-54 -22 -118 -22q-59 0 -108.5 17t-85 49.5t-55 80t-19.5 107.5t14.5 117.5t40.5 109.5q32 64 80 116.5t109 88.5 q50 29 106 45.5t117 16.5q49 0 118.5 -19t159.5 -57q-34 -125 -53.5 -204t-24.5 -111t-6.5 -59.5t-1.5 -49.5q0 -71 51 -71q58 0 99.5 31.5t69.5 80.5q17 29 28.5 62.5t19.5 68t11.5 68t3.5 63.5q0 92 -34 168q-26 60 -70 105t-101 74q-48 25 -104 38t-117 13 q-86 0 -162 -18.5t-143 -53.5q-105 -54 -181.5 -141t-121.5 -199q-58 -142 -58 -305q0 -74 17.5 -138t50.5 -117q35 -55 83.5 -96.5t111.5 -66.5q87 -35 192 -35q53 0 113 10t117 31q42 15 78 36.5t62 49.5l117 -143q-44 -39 -105 -69t-130 -51q-71 -22 -143 -33t-132 -11 q-97 0 -183 21t-160 63q-84 47 -146.5 116t-100.5 160q-47 112 -47 250q0 109 21 210t61 192q48 108 119.5 197t164.5 156q109 78 241 121.5t284 43.5q77 0 147.5 -12t133.5 -37q72 -28 130 -70.5t101 -101.5q47 -64 72.5 -144.5t25.5 -179.5v0zM911 956q-57 0 -101.5 -32.5 t-75.5 -81t-47.5 -106t-16.5 -107.5q0 -97 82 -97q38 0 68 15.5t53 41.5t38.5 59.5t22.5 68.5q9 40 20 93.5t23 121.5q-14 14 -30.5 19t-35.5 5z" />
<glyph unicode="A" horiz-adv-x="1257" d="M764 1040h-8l-301 -546h393zM922 0l-45 299h-533l-172 -299h-262l889 1485h86l301 -1485h-264z" />
<glyph unicode="B" horiz-adv-x="1208" d="M481 901q32 -2 59.5 -2h53.5q66 0 126 14t105 46q39 28 61.5 71.5t22.5 104.5q0 69 -66 102q-60 29 -169 29q-25 0 -56 -1.5t-73 -4.5zM446 715l-94 -502q26 -2 49 -3t43 -1q44 0 88.5 3.5t87.5 12t82 22.5t71 35q47 30 75.5 76.5t28.5 114.5q0 128 -87 189 q-81 57 -237 57zM958 817q42 -17 74 -53.5t55 -81.5t34.5 -94t11.5 -94q0 -101 -26 -181q-26 -81 -77 -137t-121 -94q-103 -55 -237.5 -74.5t-288.5 -19.5q-66 0 -146.5 3t-179.5 9l269 1462q85 13 158.5 19t136.5 6q149 0 257 -27q133 -33 203 -108q82 -87 82 -226 q0 -48 -15 -93t-42 -85q-28 -42 -66 -76t-82 -55z" />
<glyph unicode="C" horiz-adv-x="1255" d="M1161 1188q-26 19 -54 32.5t-58 23.5q-65 20 -138 20q-75 0 -139.5 -24t-119.5 -66q-71 -54 -124 -130.5t-88 -164.5q-30 -75 -45.5 -152t-15.5 -149q0 -81 21 -151t64 -121q39 -47 96.5 -73t135.5 -26q62 0 115.5 8.5t100.5 25.5q83 30 141 85l-4 -226q-62 -51 -149 -82 q-111 -38 -257 -38q-82 0 -152.5 19t-129.5 55q-63 38 -110.5 93.5t-79.5 125.5q-26 60 -40 127.5t-14 142.5q0 95 14 186.5t43 178.5q42 128 113 236.5t171 187.5q94 75 210 117t256 42q87 0 165 -15q74 -15 144 -44z" />
<glyph unicode="D" horiz-adv-x="1294" d="M352 233q26 -3 46.5 -3.5t37.5 -0.5q69 0 128.5 13t113.5 36q87 39 151.5 103t109.5 148q43 81 65 176t22 198q0 84 -30 149.5t-84 112.5t-125 72t-154 25q-25 0 -50 -3t-53 -8zM55 0l267 1462q74 13 141 20t129 7q94 0 177.5 -12.5t156.5 -38.5q97 -34 170.5 -92 t120.5 -143q35 -63 53 -139.5t18 -170.5q0 -122 -23.5 -231t-68.5 -203q-49 -102 -120 -183t-165 -141q-103 -66 -229.5 -100.5t-275.5 -34.5h-351z" />
<glyph unicode="E" horiz-adv-x="1188" d="M1219 1237h-676l-62 -338h486l-41 -217h-486l-82 -455h666l-43 -227h-924l269 1464h936z" />
<glyph unicode="F" horiz-adv-x="1198" d="M1235 1237h-705l-61 -338h516l-41 -217h-516l-125 -682h-258l272 1464h961z" />
<glyph unicode="G" horiz-adv-x="1384" d="M1200 135q-57 -38 -118.5 -67t-130.5 -49q-136 -39 -300 -39q-83 0 -155.5 18.5t-135.5 53.5q-119 67 -189 183q-41 67 -62 146t-21 170q0 113 17.5 215t51.5 193q50 134 134 238t201 173q100 59 221 90t264 31q114 0 198 -27q80 -26 130 -71l-76 -215q-36 22 -73 37.5 t-75 26.5q-72 20 -143 20q-97 0 -177.5 -25.5t-146.5 -72.5q-69 -49 -120.5 -116.5t-84.5 -148.5q-29 -71 -44 -149.5t-15 -161.5t21.5 -149t63.5 -115q48 -57 120.5 -87t169.5 -30q70 0 131 18q67 20 121 62h2l51 288h-203l41 220h453z" />
<glyph unicode="H" horiz-adv-x="1409" d="M1155 0h-254l125 682h-590l-125 -682h-256l269 1464h256l-105 -565h592l102 565h258z" />
<glyph unicode="I" horiz-adv-x="569" d="M326 0h-254l270 1464h252z" />
<glyph unicode="J" horiz-adv-x="1022" d="M221 336q0 -71 36 -103q27 -24 77 -24q46 0 88 8t75 30q20 13 35.5 30.5t26.5 41.5q16 29 30 86.5t29 145.5l168 913h250l-168 -915q-19 -104 -43 -187t-57 -148q-30 -58 -69.5 -101t-92.5 -72q-57 -32 -131.5 -46.5t-171.5 -14.5q-68 0 -124.5 18.5t-98.5 56.5 q-40 35 -62 87t-22 120q0 31 6 74h219z" />
<glyph unicode="K" horiz-adv-x="1331" d="M811 821l365 -821h-285l-275 627h-6l-211 -230l-73 -397h-252l270 1464h250l-123 -676l616 676h306z" />
<glyph unicode="L" horiz-adv-x="1081" d="M971 0h-918l271 1464h254l-228 -1237h662z" />
<glyph unicode="M" horiz-adv-x="1610" d="M1243 0l-20 803h-4l-445 -813h-84l-147 811h-4l-308 -801h-243l544 1464h138l155 -927h4l482 927h141l41 -1464h-250z" />
<glyph unicode="N" horiz-adv-x="1352" d="M1108 -10h-92l-545 938h-4l-162 -928h-250l271 1464h110l535 -907h4l158 907h249z" />
<glyph unicode="O" horiz-adv-x="1438" d="M365 575q0 -78 17 -151t58 -127q32 -42 79 -66t114 -24q103 0 183 39t141 105q54 59 92.5 133.5t62.5 158.5q20 71 29.5 143t9.5 142q0 177 -84 261q-75 75 -217 75q-77 0 -141 -29t-117 -79q-54 -51 -95 -118.5t-70 -142.5q-31 -81 -46.5 -164t-15.5 -156zM102 549 q0 115 21.5 228t64.5 217q46 112 114.5 205.5t160.5 161.5q84 62 185 96t220 34q184 0 308 -69q136 -75 195 -229q20 -53 30 -114t10 -131q0 -207 -56 -389q-39 -126 -104.5 -230.5t-159.5 -182.5q-95 -78 -217 -122t-274 -44q-84 0 -153 20.5t-125 58.5q-59 39 -101.5 95 t-70.5 125q-24 60 -36 128t-12 142z" />
<glyph unicode="P" horiz-adv-x="1194" d="M451 760q29 -6 61.5 -10.5t73.5 -4.5q54 0 105.5 8.5t96.5 26.5q46 19 81.5 48t58.5 71q14 27 22 59t8 70q0 116 -66 174q-65 58 -200 58q-35 0 -72.5 -4.5t-80.5 -12.5zM311 0h-258l277 1462q105 13 182.5 18t130.5 5q73 0 136 -7t117 -21q149 -38 230 -128 q95 -106 95 -280q0 -82 -19.5 -150t-54.5 -125q-42 -66 -101.5 -114t-134.5 -80q-72 -30 -152 -45t-167 -15q-93 0 -182 19z" />
<glyph unicode="Q" horiz-adv-x="1438" d="M365 575q0 -79 17.5 -151.5t58.5 -125.5q32 -42 79 -66.5t113 -24.5q14 0 28 1q12 1 27 2t29 3q-29 58 -88 97q-58 38 -135 59l122 211q59 -21 105 -44.5t83 -52.5q41 -31 72.5 -68t57.5 -81q67 67 114 155q48 92 74 195q15 60 22 120.5t7 119.5q0 180 -86 266 q-76 74 -213 74q-72 0 -133 -25.5t-112 -70.5q-66 -57 -114 -137t-78 -169q-25 -74 -37.5 -147.5t-12.5 -139.5zM1411 944q0 -85 -10 -167t-30 -161q-23 -89 -58.5 -170t-86.5 -153q-44 -61 -97.5 -112.5t-118.5 -92.5q-1 -47 23 -78t65 -51q35 -17 79.5 -25t92.5 -10 l-94 -233q-76 4 -144.5 26t-124.5 64q-49 37 -85.5 90t-57.5 125q-37 -9 -78 -12.5t-86 -3.5q-90 0 -162 23t-129 65q-60 45 -102 106t-68 136q-19 55 -28 115.5t-9 123.5q0 99 16 196.5t48 190.5q38 112 99 209.5t145 172.5q90 81 203.5 127t252.5 46q155 0 269 -51 q154 -70 223 -222q53 -117 53 -274z" />
<glyph unicode="R" horiz-adv-x="1278" d="M467 829q65 -6 108 -6q188 0 283 58q100 60 100 184q0 56 -19.5 90.5t-53.5 54.5q-45 26 -108.5 32.5t-135.5 6.5q-6 0 -30.5 -2t-67.5 -8zM1167 0h-284l-281 606q-35 0 -78 1.5t-96 6.5l-113 -614h-260l269 1464q146 8 239 12.5t139 4.5q74 0 146 -10.5t136 -35.5 q48 -18 87.5 -44.5t69.5 -61.5q32 -39 50.5 -89.5t18.5 -115.5q0 -78 -21 -149.5t-62 -132.5q-24 -35 -54 -66t-65 -56q-73 -51 -166 -71z" />
<glyph unicode="S" horiz-adv-x="1026" d="M938 1180q-29 22 -63.5 37.5t-70.5 26.5q-64 18 -124 18q-53 0 -96.5 -14t-73.5 -43q-24 -23 -37.5 -54t-13.5 -72q0 -18 10 -39.5t27 -45.5t41.5 -49t52.5 -50q35 -31 74.5 -63.5t74.5 -63.5q54 -47 100 -94.5t75 -104.5q18 -35 28 -75.5t10 -87.5q0 -57 -12 -105 t-35 -90q-32 -57 -80 -99t-109 -71q-66 -31 -142.5 -46t-157.5 -15q-96 0 -184 19q-97 22 -185 64l82 254q60 -44 126 -68q84 -30 183 -30q51 0 100.5 12t87.5 39q29 21 46.5 52t17.5 73q0 38 -34.5 82.5t-96.5 95.5q-37 31 -77.5 63.5t-78.5 61.5q-53 43 -96.5 90 t-70.5 103q-18 36 -27.5 76t-9.5 86q0 64 14 119t40 102q30 53 73.5 92.5t97.5 67.5q56 28 120 42.5t136 14.5q56 0 109 -6t100 -15q40 -8 72.5 -17t54.5 -17z" />
<glyph unicode="T" horiz-adv-x="1274" d="M1395 1237h-461l-227 -1237h-254l225 1237h-465l41 227h1184z" />
<glyph unicode="U" horiz-adv-x="1356" d="M1212 455q-12 -67 -36.5 -124.5t-59.5 -106.5q-45 -63 -103.5 -109t-129.5 -77q-134 -58 -291 -58q-64 0 -125 10.5t-115 33.5q-50 21 -91 51t-71 72q-30 41 -46.5 91.5t-16.5 113.5q0 28 2.5 56t7.5 59l185 997h260l-187 -993q-6 -27 -6 -57q0 -48 16 -86.5t45 -64.5 q61 -56 171 -56q130 0 216 65q48 36 79.5 89.5t44.5 123.5l184 979h256z" />
<glyph unicode="V" horiz-adv-x="1399" d="M670 -10h-133l-295 1474h270l176 -975h4l516 975h283z" />
<glyph unicode="W" horiz-adv-x="1896" d="M1268 -10h-97l-163 884h-4l-476 -884h-96l-207 1474h256l113 -886h4l465 897h104l140 -891h4l430 880h272z" />
<glyph unicode="X" horiz-adv-x="1346" d="M844 741l346 -741h-281l-231 516h-4l-398 -516h-294l587 772l-278 692h260l188 -487h4l400 487h295z" />
<glyph unicode="Y" horiz-adv-x="1401" d="M844 647l-119 -647h-250l121 655l-344 809h262l236 -571h8l440 571h289z" />
<glyph unicode="Z" horiz-adv-x="1251" d="M477 227h598l-43 -227h-942v84l795 1153h-602l41 227h919v-82z" />
<glyph unicode="[" horiz-adv-x="707" d="M-4 -390l334 1854h469l-39 -211h-221l-258 -1432h221l-39 -211h-467z" />
<glyph unicode="\" horiz-adv-x="1116" d="M164 1464h203l585 -1464h-202z" />
<glyph unicode="]" horiz-adv-x="707" d="M-53 -390l37 211h221l258 1432h-221l39 211h469l-336 -1854h-467z" />
<glyph unicode="^" horiz-adv-x="1382" d="M1049 877l-236 430l-238 -435h-202l352 592h182l348 -587h-206z" />
<glyph unicode="_" horiz-adv-x="1024" d="M0 -334v209h1024v-209h-1024z" />
<glyph unicode="`" horiz-adv-x="408" d="M217 1112l-186 352h231l115 -352h-160z" />
<glyph unicode="a" horiz-adv-x="991" d="M633 434q-22 5 -45.5 6.5t-34.5 1.5q-69 0 -122 -12.5t-88 -39.5q-27 -21 -41.5 -51t-14.5 -69q0 -51 33 -82q34 -32 88 -32q26 0 52.5 7t52.5 19q25 12 47 29t36 37zM942 74q-30 -50 -80 -74q-22 -11 -47 -15.5t-51 -4.5q-59 0 -102 29q-41 28 -64 79q-42 -50 -103 -77 q-68 -31 -153 -31q-68 0 -124 22t-95 62q-33 34 -51.5 78t-18.5 96q0 42 8 78t22 67q29 63 79.5 106t113.5 69q62 26 129 37t127 11q15 0 32.5 -0.5t34.5 -2t32.5 -3.5t25.5 -4q2 8 3.5 22.5t1.5 20.5q0 57 -41 85t-121 28q-55 0 -117 -20q-31 -10 -60.5 -24.5t-56.5 -31.5 l-57 174q32 14 73 27t85 23t87 16t81 6q143 0 224 -42q63 -32 91.5 -86t28.5 -130q0 -19 -2.5 -44.5t-9 -65t-17 -96t-25.5 -139.5q-6 -32 -9 -62t-3 -50q0 -33 12 -58t30.5 -42t41 -24.5t43.5 -6.5z" />
<glyph unicode="b" horiz-adv-x="1028" d="M438 -20q-68 0 -116.5 23t-79.5 67l-68 -70h-156q81 206 111 371l195 1093h204l-104 -592q80 50 192 50q40 0 75.5 -6.5t67.5 -18.5q52 -20 91.5 -54t67.5 -80q59 -98 59 -237q0 -63 -14 -122t-40 -113q-30 -63 -74.5 -116t-100.5 -94q-66 -48 -144.5 -74.5t-165.5 -26.5 zM535 745q-84 0 -148 -73l-82 -449q32 -65 129 -65q52 0 96.5 14t80.5 40q33 23 59 54.5t44 69.5q40 83 40 180q0 122 -61 179q-53 50 -158 50z" />
<glyph unicode="c" horiz-adv-x="854" d="M784 682q-46 31 -89.5 48.5t-90.5 17.5q-76 0 -134.5 -29.5t-99.5 -80.5q-44 -54 -65.5 -124.5t-21.5 -146.5q0 -40 12 -76.5t35 -65.5t56 -46t75 -17q62 0 132 27q32 12 65 29t69 40l-27 -221q-29 -13 -59.5 -22.5t-60.5 -17.5q-36 -8 -72 -12.5t-74 -4.5 q-101 0 -179 36q-102 47 -152 145q-40 77 -40 177q0 136 46 254q31 78 80.5 141t117.5 108q59 38 130 59.5t155 21.5q69 0 126.5 -13.5t108.5 -42.5z" />
<glyph unicode="d" horiz-adv-x="1028" d="M819 0h-190l-4 86q-37 -54 -98 -81q-56 -25 -134 -25q-84 0 -148 27t-108 76q-82 93 -82 249q0 157 56 284q34 78 86.5 139t124.5 102q55 32 120.5 48.5t141.5 16.5q17 0 43 -4.5t53 -12t50.5 -17.5t35.5 -22l113 598h204zM598 745q-80 0 -139 -31t-99 -83 q-41 -53 -61 -121.5t-20 -144.5q0 -101 39 -152q42 -55 131 -55q75 0 128 50q74 70 109 243l43 219q-44 75 -131 75z" />
<glyph unicode="e" horiz-adv-x="954" d="M291 393v-39q0 -92 50 -140q54 -54 159 -54q25 0 59.5 7.5t68.5 21.5q32 13 59.5 29.5t43.5 35.5l-22 -223q-26 -11 -56 -20.5t-62 -16.5q-68 -14 -145 -14q-85 0 -152 28.5t-118 79.5q-54 54 -80 126t-26 165q0 115 38 212q30 79 82 142t122 107q63 39 138.5 60.5 t161.5 21.5q68 0 130.5 -14.5t109.5 -49.5q38 -28 60 -69.5t22 -100.5q0 -54 -17 -98t-46 -79q-36 -43 -87 -72.5t-110 -47.5q-98 -29 -199 -29q-48 0 -93.5 7t-90.5 24zM332 553q28 -8 57 -12t60 -4q21 0 46 1.5t51 5.5t51.5 10.5t47.5 16.5q34 16 56 40.5t22 62.5 q0 35 -34 57q-33 21 -91 21q-42 0 -81.5 -16t-73.5 -42q-40 -30 -68.5 -68t-42.5 -73z" />
<glyph unicode="f" horiz-adv-x="649" d="M834 1284q-36 14 -65 22.5t-52 8.5q-20 0 -40.5 -4.5t-38.5 -15.5q-26 -15 -44 -41.5t-25 -67.5q-1 -7 -4.5 -28.5t-9 -51t-11.5 -63t-11 -63t-9 -51t-6 -28.5h215l-35 -170h-211l-143 -788q-13 -68 -47.5 -126t-85.5 -100q-43 -35 -95 -54t-112 -17l-45 139q56 9 101 50 q26 23 43.5 52.5t23.5 63.5l141 780h-135l35 170h131q2 7 6 30t9 54t11.5 65.5t11.5 65t9 53t6 29.5q10 49 28 89t44 72t58.5 55.5t70.5 39.5q77 31 174 31q42 0 79.5 -8.5t67.5 -28.5z" />
<glyph unicode="g" horiz-adv-x="926" d="M317 -410q-65 0 -124 12.5t-105 38.5q-47 26 -74.5 65.5t-27.5 92.5q0 46 17.5 83t46.5 66q22 22 49 39t57 31q-26 17 -46 44.5t-20 62.5q0 47 32.5 83.5t98.5 82.5q-54 33 -82 95q-26 57 -26 126q0 48 10.5 91t30.5 82q26 52 66 94.5t91 73.5q54 33 116 51t128 18 q121 0 195 -48l122 130l111 -123l-133 -103q18 -32 33.5 -68.5t15.5 -82.5q0 -53 -14.5 -103.5t-40.5 -95.5q-26 -43 -61 -79.5t-80 -63.5q-49 -30 -107 -47t-123 -17q-25 0 -48 2q-20 2 -40 3.5t-33 4.5q-18 -11 -30.5 -22t-12.5 -27q0 -14 10 -22t31 -8q33 0 73 3.5 t83 7.5t85.5 7.5t80.5 3.5q54 0 97.5 -13.5t72.5 -41.5q23 -23 36 -54t13 -73q0 -63 -24 -117t-66 -100q-75 -80 -189 -127q-67 -28 -142 -43t-153 -15zM539 764q-57 0 -101.5 -27.5t-70.5 -73.5q-16 -28 -24.5 -60.5t-8.5 -67.5q0 -72 36 -111q18 -20 45 -30.5t62 -10.5 q39 0 73 14t60 39q32 31 51 75.5t19 98.5q0 39 -13 70.5t-36 51.5q-37 32 -92 32zM322 -20q-18 -6 -40 -18.5t-41.5 -30.5t-32.5 -42t-13 -53q0 -37 29 -58q37 -26 120 -26q62 0 124 14.5t111 40.5q42 23 67.5 53.5t25.5 67.5q0 18 -7 29.5t-19 19t-27 10.5t-31 3z" />
<glyph unicode="h" horiz-adv-x="993" d="M934 651q0 -20 -4 -49.5t-10 -64.5l-103 -537h-217l100 539q5 26 8 49.5t3 36.5q0 72 -41 99q-31 21 -90 21q-64 0 -119 -28q-47 -25 -86 -70l-121 -647h-213l260 1464h213l-102 -614q50 34 105 52q32 11 64.5 15.5t65.5 4.5q42 0 76.5 -5.5t63.5 -16.5q69 -25 105 -80 q22 -32 32 -74.5t10 -94.5z" />
<glyph unicode="i" horiz-adv-x="524" d="M303 0h-215l137 731h-106l37 170h317zM399 1485q31 0 56.5 -12.5t45.5 -33.5q19 -20 29.5 -46.5t10.5 -55.5q0 -30 -12.5 -58t-35.5 -48q-19 -17 -42.5 -27t-51.5 -10q-32 0 -58.5 10.5t-46.5 30.5t-31 45.5t-11 56.5q0 30 10 55.5t28 45.5q20 22 48 34.5t61 12.5z" />
<glyph unicode="j" horiz-adv-x="573" d="M328 -43q-26 -111 -72 -181.5t-114.5 -111.5t-160.5 -56.5t-210 -16.5l10 186q59 0 103.5 2.5t78.5 13.5q65 22 103 61.5t51 108.5l141 768h-102l41 170h309zM432 1464q32 0 58.5 -13t45.5 -35q17 -20 27 -45.5t10 -53.5q0 -32 -13.5 -60.5t-36.5 -48.5q-18 -16 -41 -25 t-50 -9q-29 0 -54 9t-45 26q-23 20 -35.5 47.5t-12.5 60.5q0 52 28 89q20 27 50.5 42.5t68.5 15.5z" />
<glyph unicode="k" horiz-adv-x="922" d="M635 0l-287 371l-35 -29l-61 -342h-211l254 1464h209l-144 -860l369 328l129 -127l-346 -316l373 -489h-250z" />
<glyph unicode="l" horiz-adv-x="555" d="M430 74q-30 -50 -78 -73q-43 -21 -100 -21q-83 0 -128 59q-40 54 -40 143q0 29 7.5 93.5t27.5 158.5l217 1030h213l-201 -962q-22 -107 -34.5 -178.5t-12.5 -116.5q0 -28 10 -52.5t27.5 -42.5t41 -28t50.5 -10z" />
<glyph unicode="m" horiz-adv-x="1483" d="M1413 594l-110 -594h-216l107 571q6 29 6 58q0 55 -25 84q-31 35 -100 35q-20 0 -43.5 -8t-46.5 -21q-26 -14 -49 -32.5t-35 -37.5l-121 -649h-217l121 627q2 9 3 18t1 14q0 43 -34 66q-32 23 -87 23q-25 0 -57 -10t-63 -28q-20 -12 -38 -28t-30 -35l-121 -647h-217 l123 653q3 13 3.5 30t0.5 42q0 42 -5 83t-18 81l207 35q5 -20 10.5 -40.5t10.5 -41.5q49 42 112.5 61t139.5 19q97 0 166 -29q56 -24 90 -66q27 23 57 41t65 30q68 24 148 24q98 0 161 -33q54 -28 83 -82q28 -53 28 -131q0 -19 -2.5 -39.5t-7.5 -42.5z" />
<glyph unicode="n" horiz-adv-x="993" d="M817 0h-217l100 526q8 41 9.5 64t1.5 45q0 49 -24 76q-31 37 -109 37q-52 0 -103 -23q-26 -12 -49.5 -30t-46.5 -44l-121 -651h-217l127 680q2 8 3 20t1 27q0 38 -5.5 78t-16.5 84l204 37l21 -99q51 42 116 67q72 28 164 28q78 0 132 -19q72 -25 110 -86q37 -59 37 -155 q0 -46 -12 -111z" />
<glyph unicode="o" horiz-adv-x="987" d="M59 338q0 149 61 277q32 69 79.5 125.5t108.5 97.5q60 40 130.5 62t151.5 22q190 0 284 -105q39 -45 59.5 -105.5t20.5 -138.5q0 -121 -40 -233q-25 -70 -65 -130.5t-94 -107.5q-66 -57 -148.5 -89.5t-182.5 -32.5q-154 0 -248 76q-57 46 -87 116.5t-30 165.5zM281 350 q0 -102 45 -150q41 -44 123 -44q36 0 66.5 9t56.5 26q41 26 69.5 66t48.5 88q21 54 31 111t10 111q0 105 -53 149q-40 34 -113 34q-48 0 -86.5 -16.5t-70.5 -45.5q-34 -31 -58 -72t-40 -89q-14 -44 -21.5 -89.5t-7.5 -87.5z" />
<glyph unicode="p" horiz-adv-x="1036" d="M184 -390h-217l191 1015q5 28 9.5 55t4.5 53q0 38 -6 78.5t-14 77.5l202 37q6 -14 11 -41.5t10 -55.5q59 44 120.5 68.5t118.5 24.5q97 0 167 -24q92 -32 140 -102q58 -83 58 -225q0 -130 -41 -241q-27 -75 -71.5 -137t-104.5 -108q-65 -50 -147 -77.5t-179 -27.5 q-49 0 -91.5 11.5t-82.5 31.5zM295 205q40 -43 119 -43q61 0 111.5 14t90.5 40q85 56 119 165q23 74 23 168q0 78 -45 128q-54 62 -154 62q-21 0 -47 -7.5t-51 -19.5t-47 -28t-35 -33z" />
<glyph unicode="q" horiz-adv-x="1036" d="M743 -390h-213l78 435q-45 -31 -98.5 -48t-116.5 -17q-105 0 -183 40q-46 23 -80.5 59t-55.5 84q-16 36 -24.5 77.5t-8.5 89.5q0 69 13 132.5t37 122.5q35 83 91 150t131 112q60 36 129.5 55.5t149.5 19.5q22 0 53 -5.5t62.5 -16t58.5 -25.5t41 -33q17 28 42 44t54 19 h105q-25 -57 -43 -129t-35 -155zM639 209l90 485q-51 51 -133 51q-60 0 -110 -17.5t-89 -49.5q-35 -29 -61.5 -67t-43.5 -83q-28 -76 -28 -159q0 -81 38 -133q54 -74 169 -74q51 0 92.5 11t75.5 36z" />
<glyph unicode="r" horiz-adv-x="774" d="M715 690q-37 28 -69 43t-60 15q-35 0 -67 -13t-59 -36q-42 -35 -70 -86t-38 -101l-94 -512h-217l166 901h213l-12 -74q56 49 123 73q30 11 61 16.5t63 5.5q17 0 48 -3.5t77 -13.5z" />
<glyph unicode="s" horiz-adv-x="797" d="M670 657q-51 45 -97 68t-90 23q-24 0 -50.5 -7.5t-46.5 -22.5q-14 -11 -23 -26t-9 -35q0 -46 92 -96l140 -74q49 -26 80.5 -74t31.5 -108q0 -45 -10 -83t-29 -70q-25 -43 -63 -75t-85 -54q-48 -22 -101.5 -32.5t-110.5 -10.5q-76 0 -153 24q-72 23 -138 64l111 190 q27 -25 54 -44t54 -31q49 -23 101 -23q31 0 59 8.5t49 25.5q18 14 28.5 35t10.5 50q0 21 -19.5 44.5t-58.5 43.5l-143 73q-34 17 -58 41.5t-39 53.5q-24 47 -24 100q0 42 10.5 77.5t30.5 64.5q22 33 52.5 58.5t67.5 43.5q45 22 97 32.5t105 10.5q102 0 270 -70z" />
<glyph unicode="t" horiz-adv-x="635" d="M649 731h-250l-94 -387q-6 -25 -8 -44t-2 -36q0 -92 104 -92q24 0 60 10q39 11 92 33v-190q-40 -16 -99 -25q-32 -5 -69.5 -7.5t-79.5 -2.5q-54 0 -98 20.5t-75 55.5q-27 31 -41.5 71.5t-14.5 87.5q0 17 1.5 34t6.5 34l104 438h-106l37 170h106l53 279h224l-64 -279h248z " />
<glyph unicode="u" horiz-adv-x="965" d="M784 0h-190l-8 66q-50 -38 -113 -59q-38 -13 -81 -20t-91 -7q-62 0 -109.5 20t-79.5 57q-59 67 -59 179q0 18 1.5 40.5t6.5 47.5l109 577h213l-104 -569q-7 -35 -7 -64q0 -52 29 -79q31 -29 94 -29q42 0 79.5 13t69.5 36q42 31 69.5 75.5t35.5 98.5l90 518h213z" />
<glyph unicode="v" horiz-adv-x="954" d="M434 -10h-78l-278 911h221l152 -545l319 545h246z" />
<glyph unicode="w" horiz-adv-x="1339" d="M901 -10h-76l-155 547l-344 -547h-76l-180 911h217l84 -516l313 526h78l145 -532l267 522h223z" />
<glyph unicode="x" horiz-adv-x="997" d="M639 455l264 -455h-260l-147 283l-242 -283h-262l395 473l-240 428h248l142 -270l219 270h266z" />
<glyph unicode="y" horiz-adv-x="977" d="M502 -145q-62 -125 -176 -191q-127 -74 -314 -74v205q131 0 208 43q68 37 97 111l25 61l-219 891h221l137 -594l281 594h237z" />
<glyph unicode="z" horiz-adv-x="922" d="M377 182h430l-35 -182h-749v72l530 645h-444l34 184h756v-76z" />
<glyph unicode="{" horiz-adv-x="707" d="M436 -410q-75 0 -139 20.5t-107 62.5q-32 30 -49.5 71t-17.5 94t21.5 109.5t48 113t48 111t21.5 104.5q0 64 -32 113q-21 32 -55 53.5t-81 26.5l21 121q64 8 113.5 41t81.5 81q23 35 35.5 75.5t12.5 82.5q0 23 -3.5 54t-8 65.5t-8.5 69t-4 63.5q0 72 29 131t78 103 q58 52 137 80t165 28h101l-27 -166h-78q-43 0 -77 -18t-56 -50q-16 -23 -24.5 -53t-8.5 -65q0 -25 3.5 -55.5t7 -61.5t7 -60.5t3.5 -53.5q0 -47 -20 -95.5t-56 -96.5q-34 -45 -79 -85.5t-97 -75.5q32 -23 59 -56t47 -71q20 -37 30.5 -75.5t10.5 -75.5q0 -25 -9 -57t-22 -67 t-29 -71.5t-29 -70.5t-22 -64.5t-9 -52.5q0 -30 8.5 -51.5t23.5 -35.5t36 -20t46 -6h78l-26 -164h-99z" />
<glyph unicode="|" horiz-adv-x="1382" d="M590 -410v1874h207v-1874h-207z" />
<glyph unicode="}" horiz-adv-x="707" d="M338 1462q72 0 134 -19t106 -58q34 -31 53.5 -73.5t19.5 -97.5q0 -53 -21.5 -109.5t-48 -112.5t-48 -111t-21.5 -105q0 -37 12 -71t35 -60q21 -24 51.5 -40t69.5 -21l-21 -121q-58 -8 -104.5 -36t-78.5 -70q-29 -38 -44.5 -82.5t-15.5 -92.5q0 -22 4 -53t8.5 -65.5 t8 -69.5t3.5 -64q0 -69 -26.5 -125t-71.5 -100q-59 -56 -140 -86.5t-171 -30.5h-101l27 166h78q68 0 113 45q25 25 39 61t14 81q0 25 -3.5 55.5t-7 61.5t-7 60.5t-3.5 53.5q0 54 26 109t71 108q32 37 71 71.5t84 63.5q-31 23 -58 55.5t-47 70.5q-20 37 -31 76t-11 77 q0 25 9 57t22.5 67t29 71.5t29 70.5t22.5 64t9 53q0 60 -34 88q-15 13 -36 18.5t-45 5.5h-78l27 164h98z" />
<glyph unicode="~" d="M184 479q10 51 28.5 103t49.5 91q26 32 60.5 52t80.5 20q62 0 112 -11.5t94 -26t83 -26t78 -11.5q62 0 88 75h148q-15 -55 -31.5 -103.5t-42.5 -85.5q-26 -35 -63.5 -56t-94.5 -21q-52 0 -104.5 12t-99.5 26t-86 26t-64 12q-54 0 -90 -76h-146z" />
<glyph unicode="&#xa1;" horiz-adv-x="752" d="M223 766q0 30 10.5 56.5t29.5 47.5q22 24 52.5 38t65.5 14q29 0 55.5 -10.5t47.5 -28.5q25 -22 40 -52t15 -65q0 -34 -13.5 -63t-36.5 -51q-21 -20 -49 -32t-59 -12q-32 0 -61 12t-50 33q-22 22 -34.5 50.5t-12.5 62.5zM414 518q-1 -124 -2 -217.5t-3.5 -165.5 t-6.5 -127.5t-13 -105.5l-50 -292h-260l50 292q9 50 23 105.5t36 127.5t51.5 165.5t69.5 217.5h105z" />
<glyph unicode="&#xa2;" d="M1014 975l-47 -207q-41 31 -79 48t-75 22l-182 -605q62 3 130 29q34 13 70.5 32t75.5 44l-26 -244q-75 -31 -158 -45q-73 -12 -152 -12l-57 -189h-158l68 215q-116 42 -172 128q-59 89 -59 227q0 253 145 430q72 86 166 132q97 48 221 54l57 183h146l-60 -191 q41 -6 76.5 -19.5t69.5 -31.5zM659 821q-108 -37 -165 -141q-29 -53 -44.5 -111.5t-15.5 -124.5q0 -94 60 -157z" />
<glyph unicode="&#xa3;" d="M1024 1157q-92 62 -178 62q-124 0 -183 -88q-29 -45 -44 -112.5t-15 -162.5h219l-39 -209h-180q2 -44 -7.5 -103t-27 -119t-41 -113.5t-49.5 -86.5q47 -20 102 -30.5t124 -10.5q71 0 129 31q35 19 66 48t58 71l162 -170q-26 -55 -76.5 -97t-113.5 -70q-57 -26 -116.5 -39 t-113.5 -13q-37 0 -91 8.5t-114.5 19t-121 19t-109.5 8.5q-38 0 -91.5 -4t-121.5 -12l-61 198l88 31q45 16 75 32t53 36t41 45.5t36 58.5q13 25 23 51.5t16.5 58t10 69t3.5 83.5h-184l34 209h148q2 180 51 303q68 166 221 234q118 53 293 53q149 0 262 -84z" />
<glyph unicode="&#xa5;" d="M233 588h254l13 67l-344 809h270l236 -571l440 571h297l-643 -817l-13 -59h256l-28 -152h-254l-29 -151h258l-28 -152h-256l-25 -133h-258l24 133h-251l28 152h250l29 151h-254z" />
<glyph unicode="&#xa6;" d="M504 -203v728h207v-728h-207zM504 737v727h207v-727h-207z" />
<glyph unicode="&#xa7;" d="M987 780q0 -75 -30 -138q-27 -56 -80 -99q34 -31 49.5 -73.5t15.5 -90.5q0 -62 -15.5 -113t-43.5 -93q-37 -55 -91.5 -94t-120.5 -62q-53 -19 -110 -28t-117 -9q-128 0 -230 38q-81 30 -140 82l139 236q29 -32 60 -56.5t65 -40.5q31 -14 63.5 -22t67.5 -8q51 0 89.5 8 t64.5 26q43 31 43 89q0 46 -42 80.5t-130 54.5q-37 9 -65.5 18.5t-51.5 21t-42.5 24.5t-39.5 30q-34 29 -53 72t-19 86q0 32 8.5 61t22.5 55q17 31 41 58t51 47q-29 32 -42 74t-13 90q0 45 10.5 86t29.5 77q29 54 74.5 96t103.5 71q56 28 119.5 42.5t131.5 14.5 q60 0 108 -10.5t89 -30.5q35 -17 66 -40t60 -50l-147 -213q-13 21 -34.5 42t-50.5 38q-26 15 -59 24t-71 9q-35 0 -67 -8.5t-55 -27.5q-17 -14 -26.5 -33t-9.5 -44q0 -22 11.5 -38.5t29.5 -27.5q9 -8 38 -17.5t77 -23.5q75 -22 132.5 -50t91.5 -71q22 -27 33 -61t11 -78z M530 858q-27 -14 -40 -39.5t-13 -54.5q0 -28 17.5 -48.5t62.5 -35.5q20 -8 53.5 -20t85.5 -29q5 0 11 11t11.5 26.5t9 32t3.5 28.5q0 31 -17.5 56t-64.5 40q-31 10 -57 17.5t-62 15.5z" />
<glyph unicode="&#xa8;" horiz-adv-x="625" d="M504 1415q26 0 49 -11t40 -29q15 -17 23.5 -38.5t8.5 -44.5q0 -44 -26 -76q-17 -21 -41.5 -34t-53.5 -13q-25 0 -47 9.5t-39 25.5q-17 17 -27 39.5t-10 48.5q0 40 24 72q17 23 42.5 37t56.5 14zM123 1415q23 0 42.5 -7.5t35.5 -21.5q20 -17 31.5 -41.5t11.5 -52.5 q0 -50 -34 -86q-17 -17 -39 -27t-48 -10q-31 0 -56.5 13.5t-42.5 36.5q-24 32 -24 73q0 26 10 49t28 40q17 16 38.5 25t46.5 9z" />
<glyph unicode="&#xa9;" horiz-adv-x="772" d="M156 1122q0 69 24 130.5t67 109.5q50 57 120 90t151 33q72 0 136 -26.5t113 -73.5q53 -50 83.5 -117.5t30.5 -145.5q0 -63 -20.5 -119.5t-56.5 -102.5q-51 -64 -124.5 -102t-161.5 -38q-75 0 -141 28t-115 78t-77.5 115.5t-28.5 140.5zM244 1122q0 -52 18 -98t50 -82 q38 -43 91 -68.5t115 -25.5q69 0 126.5 30.5t95.5 81.5q25 34 39 75.5t14 86.5q0 54 -19.5 102t-54.5 85q-38 40 -90 63t-111 23q-61 0 -113 -24t-90 -66q-33 -36 -52 -82.5t-19 -100.5zM635 1309l-27 -74q-36 27 -86 27q-27 0 -45 -13t-29.5 -33.5t-16.5 -45.5t-5 -50 q0 -24 5.5 -48t17.5 -43t30.5 -30.5t44.5 -11.5q23 0 43.5 12t38.5 35l47 -65q-58 -58 -135 -58q-44 0 -77 17.5t-55 46.5t-33 67.5t-11 81.5q0 40 12 78.5t35 68.5t56.5 48t76.5 18q32 0 61 -6.5t52 -21.5z" />
<glyph unicode="&#xaa;" horiz-adv-x="739" d="M580 1126q-16 3 -34 5t-26 2q-83 0 -133 -26q-29 -16 -45 -40.5t-16 -60.5q0 -40 27 -64q23 -20 61 -20q37 0 77 18t62 49zM807 862q-22 -37 -55.5 -53t-75.5 -16q-45 0 -74.5 21t-46.5 58q-35 -40 -84 -59.5t-104 -19.5q-50 0 -91 16t-70 45q-25 25 -38.5 58t-13.5 71 q0 41 10 74t27 60q21 33 52 57t67 40q47 21 98 30t98 9q23 0 50 -2.5t42 -5.5q2 6 2 17v16q0 82 -119 82q-42 0 -88 -15.5t-84 -39.5l-41 127q26 11 60 21.5t69 18.5q29 6 57.5 9.5t53.5 3.5q111 0 172 -35q42 -23 61 -62.5t19 -93.5q0 -14 -1.5 -32.5t-6 -47t-12 -70 t-19.5 -102.5q-5 -24 -6.5 -46t-1.5 -38q0 -24 8.5 -42t22 -30.5t30 -18.5t31.5 -5h2z" />
<glyph unicode="&#xab;" horiz-adv-x="1098" d="M129 381l25 131l440 326l-41 -226l-242 -172l183 -153l-41 -224zM559 381l25 131l440 326l-41 -226l-242 -172l183 -153l-41 -224z" />
<glyph unicode="&#xac;" horiz-adv-x="1073" d="M961 887v-488h-142v346h-696v142h838z" />
<glyph unicode="&#xae;" horiz-adv-x="772" d="M150 1122q0 66 22 125t62 107q51 60 122.5 95.5t155.5 35.5q65 0 123 -22t105 -60q61 -51 97.5 -123.5t36.5 -157.5q0 -69 -24.5 -131t-68.5 -110q-50 -56 -119.5 -88.5t-149.5 -32.5q-76 0 -142.5 29t-115.5 79q-48 49 -76 114t-28 140zM238 1122q0 -59 23 -109.5 t62 -88.5q37 -35 85 -55.5t104 -20.5q61 0 113 24t90 66q33 37 52 83.5t19 100.5q0 64 -26.5 118.5t-72.5 92.5q-36 30 -80.5 47t-94.5 17q-62 0 -114.5 -25t-90.5 -68q-32 -37 -50.5 -83t-18.5 -99zM594 920l-98 165h-33v-165h-84v413h113q153 0 153 -121q0 -75 -70 -110 l111 -182h-92zM492 1257h-29v-100h40.5t24.5 2q33 6 33 49q0 26 -17 37.5t-52 11.5z" />
<glyph unicode="&#xaf;" horiz-adv-x="678" d="M6 1241v148h666v-148h-666z" />
<glyph unicode="&#xb0;" horiz-adv-x="844" d="M317 1206q0 54 23 100.5t61 79.5q32 28 72.5 44t85.5 16q43 0 82 -15t71 -41q41 -33 65 -81t24 -103q0 -42 -14 -79t-38 -68q-34 -42 -83.5 -67t-106.5 -25q-49 0 -92.5 18.5t-76.5 50.5q-34 32 -53.5 76t-19.5 94zM451 1206q0 -23 9.5 -43.5t25.5 -35.5q14 -14 33 -21.5 t40 -7.5q43 0 75 30q16 15 25 35t9 43q0 21 -7.5 39.5t-20.5 32.5q-15 17 -36 27t-45 10q-40 0 -70 -27q-17 -15 -27.5 -36t-10.5 -46z" />
<glyph unicode="&#xb1;" horiz-adv-x="1382" d="M199 0v201h983v-201h-983zM791 530v-268h-201v268h-391v201h391v391h201v-391h391v-201h-391z" />
<glyph unicode="&#xb2;" horiz-adv-x="952" d="M193 578l10 59l364 387q59 62 91 108t32 91q0 34 -24.5 52.5t-73.5 18.5q-42 0 -84 -23.5t-84 -74.5l-117 96q37 40 76.5 69.5t83.5 48.5q77 34 172 34q57 0 105.5 -11.5t83.5 -37.5q30 -23 47.5 -56t17.5 -79q0 -37 -8 -71t-27 -69t-50.5 -75t-78.5 -89l-217 -225h342 l-29 -153h-632z" />
<glyph unicode="&#xb3;" horiz-adv-x="948" d="M328 799q11 -19 28.5 -35t37.5 -27t41 -17.5t40 -6.5q62 0 108 29q27 18 43.5 46.5t16.5 67.5q0 22 -8.5 39t-22.5 30q-18 16 -45 23.5t-59 7.5h-45l26 148h39q73 0 115 33q18 14 28.5 35t10.5 47q0 34 -26.5 55.5t-71.5 21.5q-31 0 -77.5 -16t-86.5 -53l-64 123 q64 45 143 71q33 11 67.5 17t68.5 6q118 0 183 -53q30 -25 46.5 -59t16.5 -79q0 -38 -11.5 -71.5t-31.5 -61.5q-20 -27 -46.5 -49t-58.5 -39h2q107 -46 107 -158q0 -49 -12 -89.5t-35 -73.5t-54.5 -58.5t-69.5 -43.5q-48 -23 -104.5 -33.5t-117.5 -10.5q-75 0 -134 24 t-108 70z" />
<glyph unicode="&#xb4;" horiz-adv-x="412" d="M436 1464l-274 -352h-178l225 352h227z" />
<glyph unicode="&#xb5;" horiz-adv-x="965" d="M176 901h215l-112 -569q-7 -35 -7 -64q0 -59 38 -86q31 -22 85 -22q38 0 71.5 10.5t62.5 30.5q44 30 72.5 77.5t39.5 104.5l98 518h213l-168 -901h-211l13 66q-26 -18 -52.5 -31.5t-55.5 -23.5q-32 -11 -67.5 -16t-80.5 -5q-13 0 -29 1t-32.5 4t-31 8.5t-24.5 12.5 l-82 -406h-215z" />
<glyph unicode="&#xb6;" d="M672 -250l286 1591h-157l-287 -1591h-154l158 868q-146 0 -217 77q-68 74 -68 215q0 32 3.5 68t10.5 75q15 84 50.5 164t92.5 140q46 49 105.5 78t133.5 29h506l-310 -1714h-153z" />
<glyph unicode="&#xb7;" horiz-adv-x="516" d="M111 741q0 34 11.5 64t31.5 53q25 29 60.5 46.5t76.5 17.5q39 0 73 -16t59 -43q23 -24 35.5 -55.5t12.5 -66.5q0 -38 -14.5 -71t-39.5 -58t-57 -39t-69 -14q-35 0 -65.5 12t-53.5 33q-29 25 -45 60.5t-16 76.5z" />
<glyph unicode="&#xb8;" horiz-adv-x="319" d="M-4 -311q39 0 73.5 4t60.5 14t41.5 26t15.5 42q0 21 -19 35t-59 14l18 119q51 0 90 -13.5t63 -39.5q32 -35 32 -87q0 -49 -18 -85.5t-50 -62.5q-42 -33 -104 -49t-140 -16z" />
<glyph unicode="&#xb9;" horiz-adv-x="981" d="M475 563l103 578h-9q-49 -25 -102 -52t-96 -49l32 179q107 43 189 94q40 25 75.5 52.5t65.5 57.5h88l-153 -860h-193z" />
<glyph unicode="&#xba;" horiz-adv-x="748" d="M170 1057q0 51 10 98.5t29 91.5q44 101 127 164q46 35 101.5 54.5t121.5 19.5q72 0 124.5 -21t86.5 -61q55 -64 55 -172q0 -93 -30 -174q-18 -49 -45.5 -91.5t-64.5 -76.5q-48 -44 -111 -69t-138 -25q-110 0 -178 53q-43 33 -65.5 85.5t-22.5 123.5zM332 1067 q0 -84 42 -119q30 -24 81 -24q47 0 81.5 20.5t59.5 53.5q35 47 50.5 108.5t15.5 118.5q0 82 -45 113q-29 20 -76 20q-57 0 -97 -30t-66 -75q-23 -42 -34.5 -91t-11.5 -95z" />
<glyph unicode="&#xbb;" horiz-adv-x="1098" d="M72 61l41 224l239 153l-180 172l41 226l322 -326l-25 -131zM502 61l41 224l239 153l-180 172l41 226l322 -326l-25 -131z" />
<glyph unicode="&#xbc;" horiz-adv-x="1796" d="M1368 553h-4l-238 -207h203zM330 563l102 578h-8q-50 -25 -102.5 -52t-96.5 -49l33 179q52 21 99.5 44.5t89.5 49.5q80 49 141 110h88l-154 -860h-192zM481 0h-186l1044 1423h185zM1491 201l-37 -201h-186l37 201h-420l18 102l613 557h94l-94 -514h94l-25 -145h-94z" />
<glyph unicode="&#xbd;" horiz-adv-x="1796" d="M250 563l102 578h-8l-199 -101l33 179q49 20 93 42t85 46q44 26 82 55t70 61h88l-154 -860h-192zM403 0h-186l1045 1423h184zM971 0l10 59l365 387q57 60 89.5 107t32.5 92q0 34 -24 53t-74 19q-42 0 -84 -24t-84 -75l-117 97q85 90 182 125q70 26 150 26 q62 0 113.5 -13.5t86.5 -43.5q26 -22 40 -53.5t14 -73.5q0 -35 -6.5 -67t-23.5 -65q-18 -37 -50.5 -77.5t-83.5 -93.5l-215 -225h342l-28 -154h-635z" />
<glyph unicode="&#xbe;" horiz-adv-x="1796" d="M1399 553h-2l-238 -207h203zM512 0h-186l1044 1423h184zM252 799q11 -19 27.5 -34.5t36.5 -26.5q42 -25 83 -25q35 0 67 9.5t55 29.5q22 18 34 44t12 60q0 43 -32 70q-36 30 -103 30h-45l27 148h39q39 0 71 10.5t52 30.5q30 30 30 74q0 34 -28 56q-27 21 -70 21 q-31 0 -77.5 -16t-86.5 -53l-63 123q59 41 131 67q36 13 73 20t74 7q145 0 208 -77q38 -46 38 -114q0 -36 -10 -67.5t-28 -58.5q-20 -29 -47.5 -53t-62.5 -42h2q62 -27 87 -73q20 -37 20 -85q0 -42 -8.5 -77t-24.5 -65q-22 -40 -55.5 -70t-75.5 -50q-50 -24 -108 -35.5 t-121 -11.5q-75 0 -133.5 24t-108.5 70zM1522 201l-37 -201h-187l37 201h-420l19 102l612 557h94l-92 -514h94l-26 -145h-94z" />
<glyph unicode="&#xbf;" horiz-adv-x="752" d="M354 766q0 30 10.5 57t30.5 48q22 23 52 37t65 14t66.5 -16t54.5 -42q17 -20 27 -45t10 -53q0 -32 -12.5 -60.5t-34.5 -50.5t-50.5 -34.5t-60.5 -12.5q-34 0 -62.5 12.5t-50.5 34.5q-21 21 -33 50t-12 61zM586 457q3 -6 6 -16.5t6 -23.5t4.5 -27.5t1.5 -27.5 q0 -54 -30 -106t-70 -94q-22 -22 -60.5 -55t-97.5 -78q-65 -51 -97 -91t-32 -83q0 -42 33 -66q43 -29 135 -29q21 0 43.5 4t46.5 13q26 9 52.5 23.5t54.5 33.5l77 -160q-74 -43 -163 -64q-88 -20 -189 -20q-78 0 -144.5 18.5t-114.5 55.5q-38 29 -59.5 69t-21.5 91 q0 44 10 80t30 67q29 48 77 87.5t113 84.5q44 31 81 59.5t63.5 58.5t41 64.5t14.5 77.5q0 20 -6 54h195z" />
<glyph unicode="&#xc0;" horiz-adv-x="1257" d="M764 1040h-8l-301 -546h393zM922 0l-45 299h-533l-172 -299h-262l889 1485h86l301 -1485h-264zM805 1540l-186 352h231l115 -352h-160z" />
<glyph unicode="&#xc1;" horiz-adv-x="1257" d="M764 1040h-8l-301 -546h393zM922 0l-45 299h-533l-172 -299h-262l889 1485h86l301 -1485h-264zM1163 1892l-274 -352h-178l225 352h227z" />
<glyph unicode="&#xc2;" horiz-adv-x="1257" d="M764 1040h-8l-301 -546h393zM922 0l-45 299h-533l-172 -299h-262l889 1485h86l301 -1485h-264zM975 1540l-103 182l-174 -182h-211l349 352h120l240 -352h-221z" />
<glyph unicode="&#xc3;" horiz-adv-x="1257" d="M764 1040h-8l-301 -546h393zM922 0l-45 299h-533l-172 -299h-262l889 1485h86l301 -1485h-264zM1204 1767q-43 -108 -104 -166q-66 -61 -144 -61q-47 0 -81.5 15t-63.5 30q-23 13 -44.5 23t-35.5 10q-57 0 -111 -78h-116q14 50 46 100t76 84q26 20 54.5 31.5t58.5 11.5 q57 0 95 -16t67 -33q17 -11 35.5 -19.5t40.5 -8.5q67 0 106 77h121z" />
<glyph unicode="&#xc4;" horiz-adv-x="1257" d="M764 1040h-8l-301 -546h393zM922 0l-45 299h-533l-172 -299h-262l889 1485h86l301 -1485h-264zM1049 1786q26 0 49 -11t40 -29q15 -17 23.5 -38.5t8.5 -44.5q0 -44 -26 -76q-17 -21 -41.5 -34t-53.5 -13q-25 0 -47 9.5t-39 25.5q-17 17 -27 39.5t-10 48.5q0 40 24 72 q17 23 42.5 37t56.5 14zM668 1786q23 0 42.5 -7.5t35.5 -21.5q20 -17 31.5 -41.5t11.5 -52.5q0 -50 -34 -86q-17 -17 -39 -27t-48 -10q-31 0 -56.5 13.5t-42.5 36.5q-24 32 -24 73q0 26 10 49t28 40q17 16 38.5 25t46.5 9z" />
<glyph unicode="&#xc5;" horiz-adv-x="1257" d="M764 1040h-8l-301 -546h393zM922 0l-45 299h-533l-172 -299h-262l889 1485h86l301 -1485h-264zM860 1960q42 0 79.5 -15.5t66.5 -43.5q30 -29 47.5 -67t17.5 -83q0 -38 -12 -71t-34 -60q-29 -37 -71.5 -58.5t-93.5 -21.5q-43 0 -81 16t-67 44q-29 29 -46 67.5t-17 83.5 q0 44 17.5 82t46.5 67q29 28 67 44t80 16zM860 1651q21 0 39.5 7.5t32.5 21.5q29 29 29 71q0 23 -10.5 43t-27.5 34q-27 21 -63 21q-23 0 -43.5 -9.5t-34.5 -25.5q-24 -27 -24 -63q0 -34 21 -61q14 -18 35.5 -28.5t45.5 -10.5z" />
<glyph unicode="&#xc6;" horiz-adv-x="1950" d="M1010 1040h-9l-434 -546h344zM877 299h-467l-238 -299h-262l1177 1464h936l-43 -227h-675l-62 -338h486l-41 -217h-486l-82 -455h666l-43 -227h-924z" />
<glyph unicode="&#xc7;" horiz-adv-x="1255" d="M1161 1188q-26 19 -54 32.5t-58 23.5q-65 20 -138 20q-75 0 -139.5 -24t-119.5 -66q-71 -54 -124 -130.5t-88 -164.5q-30 -75 -45.5 -152t-15.5 -149q0 -81 21 -151t64 -121q39 -47 96.5 -73t135.5 -26q62 0 115.5 8.5t100.5 25.5q83 30 141 85l-4 -226q-62 -51 -149 -82 q-111 -38 -257 -38q-82 0 -152.5 19t-129.5 55q-63 38 -110.5 93.5t-79.5 125.5q-26 60 -40 127.5t-14 142.5q0 95 14 186.5t43 178.5q42 128 113 236.5t171 187.5q94 75 210 117t256 42q87 0 165 -15q74 -15 144 -44zM465 -311q39 0 73.5 4t60.5 14t41.5 26t15.5 42 q0 21 -19 35t-59 14l18 119q51 0 90 -13.5t63 -39.5q32 -35 32 -87q0 -49 -18 -85.5t-50 -62.5q-42 -33 -104 -49t-140 -16z" />
<glyph unicode="&#xc8;" horiz-adv-x="1188" d="M1219 1237h-676l-62 -338h486l-41 -217h-486l-82 -455h666l-43 -227h-924l269 1464h936zM774 1540l-186 352h231l115 -352h-160z" />
<glyph unicode="&#xc9;" horiz-adv-x="1214" d="M1219 1237h-676l-62 -338h486l-41 -217h-486l-82 -455h666l-43 -227h-924l269 1464h936zM1128 1892l-274 -352h-178l225 352h227z" />
<glyph unicode="&#xca;" horiz-adv-x="1188" d="M1219 1237h-676l-62 -338h486l-41 -217h-486l-82 -455h666l-43 -227h-924l269 1464h936zM948 1540l-103 182l-174 -182h-211l349 352h120l240 -352h-221z" />
<glyph unicode="&#xcb;" horiz-adv-x="1188" d="M1219 1237h-676l-62 -338h486l-41 -217h-486l-82 -455h666l-43 -227h-924l269 1464h936zM1002 1786q26 0 49 -11t40 -29q15 -17 23.5 -38.5t8.5 -44.5q0 -44 -26 -76q-17 -21 -41.5 -34t-53.5 -13q-25 0 -47 9.5t-39 25.5q-17 17 -27 39.5t-10 48.5q0 40 24 72 q17 23 42.5 37t56.5 14zM621 1786q23 0 42.5 -7.5t35.5 -21.5q20 -17 31.5 -41.5t11.5 -52.5q0 -50 -34 -86q-17 -17 -39 -27t-48 -10q-31 0 -56.5 13.5t-42.5 36.5q-24 32 -24 73q0 26 10 49t28 40q17 16 38.5 25t46.5 9z" />
<glyph unicode="&#xcc;" horiz-adv-x="569" d="M326 0h-254l270 1464h252zM461 1540l-186 352h231l115 -352h-160z" />
<glyph unicode="&#xcd;" horiz-adv-x="569" d="M326 0h-254l270 1464h252zM803 1892l-274 -352h-178l225 352h227z" />
<glyph unicode="&#xce;" horiz-adv-x="569" d="M326 0h-254l270 1464h252zM629 1540l-103 182l-174 -182h-211l349 352h120l240 -352h-221z" />
<glyph unicode="&#xcf;" horiz-adv-x="569" d="M326 0h-254l270 1464h252zM674 1786q26 0 49 -11t40 -29q15 -17 23.5 -38.5t8.5 -44.5q0 -44 -26 -76q-17 -21 -41.5 -34t-53.5 -13q-25 0 -47 9.5t-39 25.5q-17 17 -27 39.5t-10 48.5q0 40 24 72q17 23 42.5 37t56.5 14zM293 1786q23 0 42.5 -7.5t35.5 -21.5 q20 -17 31.5 -41.5t11.5 -52.5q0 -50 -34 -86q-17 -17 -39 -27t-48 -10q-31 0 -56.5 13.5t-42.5 36.5q-24 32 -24 73q0 26 10 49t28 40q17 16 38.5 25t46.5 9z" />
<glyph unicode="&#xd0;" horiz-adv-x="1294" d="M461 895h278l-39 -223h-278l-78 -439q26 -3 46.5 -3.5t37.5 -0.5q70 0 131.5 13t115.5 38q78 36 139 93.5t104 131.5q50 85 75 186.5t25 211.5q0 56 -14 104t-40 88q-52 81 -144 125q-43 20 -92 31t-103 11q-25 0 -50 -3t-53 -8zM70 895h141l102 567q75 13 142 20t129 7 q101 0 191 -14.5t167 -45.5q100 -40 174 -107.5t116 -166.5q23 -56 35.5 -121t12.5 -141q0 -83 -11 -159.5t-32 -147.5q-73 -244 -255 -394q-112 -93 -259 -142.5t-326 -49.5h-350l123 672h-141z" />
<glyph unicode="&#xd1;" horiz-adv-x="1352" d="M1108 -10h-92l-545 938h-4l-162 -928h-250l271 1464h110l535 -907h4l158 907h249zM1235 1767q-43 -108 -104 -166q-66 -61 -144 -61q-47 0 -81.5 15t-63.5 30q-23 13 -44.5 23t-35.5 10q-57 0 -111 -78h-116q14 50 46 100t76 84q26 20 54.5 31.5t58.5 11.5q57 0 95 -16 t67 -33q17 -11 35.5 -19.5t40.5 -8.5q67 0 106 77h121z" />
<glyph unicode="&#xd2;" horiz-adv-x="1438" d="M365 575q0 -78 17 -151t58 -127q32 -42 79 -66t114 -24q103 0 183 39t141 105q54 59 92.5 133.5t62.5 158.5q20 71 29.5 143t9.5 142q0 177 -84 261q-75 75 -217 75q-77 0 -141 -29t-117 -79q-54 -51 -95 -118.5t-70 -142.5q-31 -81 -46.5 -164t-15.5 -156zM102 549 q0 115 21.5 228t64.5 217q46 112 114.5 205.5t160.5 161.5q84 62 185 96t220 34q184 0 308 -69q136 -75 195 -229q20 -53 30 -114t10 -131q0 -207 -56 -389q-39 -126 -104.5 -230.5t-159.5 -182.5q-95 -78 -217 -122t-274 -44q-84 0 -153 20.5t-125 58.5q-59 39 -101.5 95 t-70.5 125q-24 60 -36 128t-12 142zM848 1540l-186 352h231l115 -352h-160z" />
<glyph unicode="&#xd3;" horiz-adv-x="1438" d="M365 575q0 -78 17 -151t58 -127q32 -42 79 -66t114 -24q103 0 183 39t141 105q54 59 92.5 133.5t62.5 158.5q20 71 29.5 143t9.5 142q0 177 -84 261q-75 75 -217 75q-77 0 -141 -29t-117 -79q-54 -51 -95 -118.5t-70 -142.5q-31 -81 -46.5 -164t-15.5 -156zM102 549 q0 115 21.5 228t64.5 217q46 112 114.5 205.5t160.5 161.5q84 62 185 96t220 34q184 0 308 -69q136 -75 195 -229q20 -53 30 -114t10 -131q0 -207 -56 -389q-39 -126 -104.5 -230.5t-159.5 -182.5q-95 -78 -217 -122t-274 -44q-84 0 -153 20.5t-125 58.5q-59 39 -101.5 95 t-70.5 125q-24 60 -36 128t-12 142zM1210 1892l-274 -352h-178l225 352h227z" />
<glyph unicode="&#xd4;" horiz-adv-x="1438" d="M365 575q0 -78 17 -151t58 -127q32 -42 79 -66t114 -24q103 0 183 39t141 105q54 59 92.5 133.5t62.5 158.5q20 71 29.5 143t9.5 142q0 177 -84 261q-75 75 -217 75q-77 0 -141 -29t-117 -79q-54 -51 -95 -118.5t-70 -142.5q-31 -81 -46.5 -164t-15.5 -156zM102 549 q0 115 21.5 228t64.5 217q46 112 114.5 205.5t160.5 161.5q84 62 185 96t220 34q184 0 308 -69q136 -75 195 -229q20 -53 30 -114t10 -131q0 -207 -56 -389q-39 -126 -104.5 -230.5t-159.5 -182.5q-95 -78 -217 -122t-274 -44q-84 0 -153 20.5t-125 58.5q-59 39 -101.5 95 t-70.5 125q-24 60 -36 128t-12 142zM1024 1540l-103 182l-174 -182h-211l349 352h120l240 -352h-221z" />
<glyph unicode="&#xd5;" horiz-adv-x="1438" d="M365 575q0 -78 17 -151t58 -127q32 -42 79 -66t114 -24q103 0 183 39t141 105q54 59 92.5 133.5t62.5 158.5q20 71 29.5 143t9.5 142q0 177 -84 261q-75 75 -217 75q-77 0 -141 -29t-117 -79q-54 -51 -95 -118.5t-70 -142.5q-31 -81 -46.5 -164t-15.5 -156zM102 549 q0 115 21.5 228t64.5 217q46 112 114.5 205.5t160.5 161.5q84 62 185 96t220 34q184 0 308 -69q136 -75 195 -229q20 -53 30 -114t10 -131q0 -207 -56 -389q-39 -126 -104.5 -230.5t-159.5 -182.5q-95 -78 -217 -122t-274 -44q-84 0 -153 20.5t-125 58.5q-59 39 -101.5 95 t-70.5 125q-24 60 -36 128t-12 142zM1239 1767q-43 -108 -104 -166q-66 -61 -144 -61q-47 0 -81.5 15t-63.5 30q-23 13 -44.5 23t-35.5 10q-57 0 -111 -78h-116q14 50 46 100t76 84q26 20 54.5 31.5t58.5 11.5q57 0 95 -16t67 -33q17 -11 35.5 -19.5t40.5 -8.5q67 0 106 77 h121z" />
<glyph unicode="&#xd6;" horiz-adv-x="1438" d="M365 575q0 -78 17 -151t58 -127q32 -42 79 -66t114 -24q103 0 183 39t141 105q54 59 92.5 133.5t62.5 158.5q20 71 29.5 143t9.5 142q0 177 -84 261q-75 75 -217 75q-77 0 -141 -29t-117 -79q-54 -51 -95 -118.5t-70 -142.5q-31 -81 -46.5 -164t-15.5 -156zM102 549 q0 115 21.5 228t64.5 217q46 112 114.5 205.5t160.5 161.5q84 62 185 96t220 34q184 0 308 -69q136 -75 195 -229q20 -53 30 -114t10 -131q0 -207 -56 -389q-39 -126 -104.5 -230.5t-159.5 -182.5q-95 -78 -217 -122t-274 -44q-84 0 -153 20.5t-125 58.5q-59 39 -101.5 95 t-70.5 125q-24 60 -36 128t-12 142zM1106 1786q26 0 49 -11t40 -29q15 -17 23.5 -38.5t8.5 -44.5q0 -44 -26 -76q-17 -21 -41.5 -34t-53.5 -13q-25 0 -47 9.5t-39 25.5q-17 17 -27 39.5t-10 48.5q0 40 24 72q17 23 42.5 37t56.5 14zM725 1786q23 0 42.5 -7.5t35.5 -21.5 q20 -17 31.5 -41.5t11.5 -52.5q0 -50 -34 -86q-17 -17 -39 -27t-48 -10q-31 0 -56.5 13.5t-42.5 36.5q-24 32 -24 73q0 26 10 49t28 40q17 16 38.5 25t46.5 9z" />
<glyph unicode="&#xd7;" d="M647 489l-350 -350l-141 142l350 350l-350 350l141 141l350 -350l350 350l142 -141l-351 -350l351 -350l-142 -142z" />
<glyph unicode="&#xd8;" horiz-adv-x="1438" d="M365 571q0 -34 2.5 -68t11.5 -71l663 778q-37 26 -84.5 40t-107.5 14q-85 0 -153.5 -35t-123.5 -94q-54 -58 -94.5 -132t-66.5 -155q-23 -72 -35 -143t-12 -134zM1151 928q0 17 -1 36.5t-3 37.5t-5 32.5t-7 22.5l-674 -791q32 -31 74 -47t98 -16q88 0 158.5 28.5 t127.5 79.5q57 50 98.5 116.5t70.5 143.5q32 86 47.5 177.5t15.5 179.5zM1325 1280q40 -65 63 -149t23 -183q0 -129 -21 -248.5t-65 -227.5q-48 -120 -123.5 -217t-178.5 -163q-87 -56 -192 -86.5t-231 -30.5q-182 0 -305 99l-78 -94l-207 20l174 205q-40 71 -61 157.5 t-21 182.5q0 92 14 182.5t41 177.5q43 136 118 252t181 197q85 65 187.5 101t224.5 36q100 0 185 -21.5t153 -66.5l70 82l207 -21z" />
<glyph unicode="&#xd9;" horiz-adv-x="1356" d="M1212 455q-12 -67 -36.5 -124.5t-59.5 -106.5q-45 -63 -103.5 -109t-129.5 -77q-134 -58 -291 -58q-64 0 -125 10.5t-115 33.5q-50 21 -91 51t-71 72q-30 41 -46.5 91.5t-16.5 113.5q0 28 2.5 56t7.5 59l185 997h260l-187 -993q-6 -27 -6 -57q0 -48 16 -86.5t45 -64.5 q61 -56 171 -56q130 0 216 65q48 36 79.5 89.5t44.5 123.5l184 979h256zM842 1540l-186 352h231l115 -352h-160z" />
<glyph unicode="&#xda;" horiz-adv-x="1356" d="M1212 455q-12 -67 -36.5 -124.5t-59.5 -106.5q-45 -63 -103.5 -109t-129.5 -77q-134 -58 -291 -58q-64 0 -125 10.5t-115 33.5q-50 21 -91 51t-71 72q-30 41 -46.5 91.5t-16.5 113.5q0 28 2.5 56t7.5 59l185 997h260l-187 -993q-6 -27 -6 -57q0 -48 16 -86.5t45 -64.5 q61 -56 171 -56q130 0 216 65q48 36 79.5 89.5t44.5 123.5l184 979h256zM1173 1892l-274 -352h-178l225 352h227z" />
<glyph unicode="&#xdb;" horiz-adv-x="1356" d="M1212 455q-12 -67 -36.5 -124.5t-59.5 -106.5q-45 -63 -103.5 -109t-129.5 -77q-134 -58 -291 -58q-64 0 -125 10.5t-115 33.5q-50 21 -91 51t-71 72q-30 41 -46.5 91.5t-16.5 113.5q0 28 2.5 56t7.5 59l185 997h260l-187 -993q-6 -27 -6 -57q0 -48 16 -86.5t45 -64.5 q61 -56 171 -56q130 0 216 65q48 36 79.5 89.5t44.5 123.5l184 979h256zM1006 1540l-103 182l-174 -182h-211l349 352h120l240 -352h-221z" />
<glyph unicode="&#xdc;" horiz-adv-x="1356" d="M1212 455q-12 -67 -36.5 -124.5t-59.5 -106.5q-45 -63 -103.5 -109t-129.5 -77q-134 -58 -291 -58q-64 0 -125 10.5t-115 33.5q-50 21 -91 51t-71 72q-30 41 -46.5 91.5t-16.5 113.5q0 28 2.5 56t7.5 59l185 997h260l-187 -993q-6 -27 -6 -57q0 -48 16 -86.5t45 -64.5 q61 -56 171 -56q130 0 216 65q48 36 79.5 89.5t44.5 123.5l184 979h256zM1073 1786q26 0 49 -11t40 -29q15 -17 23.5 -38.5t8.5 -44.5q0 -44 -26 -76q-17 -21 -41.5 -34t-53.5 -13q-25 0 -47 9.5t-39 25.5q-17 17 -27 39.5t-10 48.5q0 40 24 72q17 23 42.5 37t56.5 14z M692 1786q23 0 42.5 -7.5t35.5 -21.5q20 -17 31.5 -41.5t11.5 -52.5q0 -50 -34 -86q-17 -17 -39 -27t-48 -10q-31 0 -56.5 13.5t-42.5 36.5q-24 32 -24 73q0 26 10 49t28 40q17 16 38.5 25t46.5 9z" />
<glyph unicode="&#xdd;" horiz-adv-x="1401" d="M844 647l-119 -647h-250l121 655l-344 809h262l236 -571h8l440 571h289zM1184 1892l-274 -352h-178l225 352h227z" />
<glyph unicode="&#xde;" horiz-adv-x="1194" d="M406 520q43 -9 79 -14.5t74 -5.5q63 0 116 13t95 38q64 37 101 103q44 79 44 190q0 63 -16.5 108t-54.5 74q-64 49 -199 49q-34 0 -66.5 -4t-74.5 -12zM311 0h-258l277 1464h250l-39 -178q35 5 65 7.5t58 2.5q72 0 138.5 -11.5t123.5 -34.5q62 -25 111 -64.5t82 -93.5 q27 -45 42 -100.5t15 -123.5q0 -196 -79 -330q-35 -60 -83.5 -105.5t-109.5 -77.5q-143 -76 -349 -76q-46 0 -91 4.5t-97 15.5z" />
<glyph unicode="&#xdf;" horiz-adv-x="1182" d="M467 -4l65 174q26 -6 52 -9t37 -3q41 0 76.5 14t65.5 39q35 29 61.5 69.5t43.5 88.5q31 85 31 172q0 78 -14 123.5t-43 74.5q-14 13 -38.5 32t-72.5 48q-40 25 -59 49t-19 58q0 12 6.5 23.5t17.5 22.5t25 22t29 22l88 65q37 28 52.5 59.5t15.5 71.5q0 24 -9.5 44 t-25.5 34.5t-38 22.5t-48 8q-37 0 -73 -16t-66.5 -47.5t-52.5 -76.5t-33 -104l-209 -1132q-21 -118 -96 -197q-45 -48 -106.5 -75t-137.5 -27l-45 139q31 5 58 21t49 39q25 26 41 57t22 63l207 1129q14 73 40 135t66 111q63 77 154 114q76 31 168 31q75 0 137.5 -21.5 t107.5 -62.5q35 -33 55.5 -76.5t20.5 -97.5q0 -38 -12 -71.5t-35 -63.5q-29 -39 -71.5 -72t-94.5 -59q-14 -9 -14 -23q0 -6 4.5 -12.5t15.5 -10.5q122 -39 182 -112q38 -47 56 -109t18 -143q0 -59 -13.5 -121.5t-39.5 -123.5q-29 -67 -73.5 -127.5t-104.5 -105.5 q-57 -43 -127 -68t-154 -25q-27 0 -47 1.5t-36 4.5t-30 7t-30 9v-6z" />
<glyph unicode="&#xe0;" horiz-adv-x="991" d="M633 434q-22 5 -45.5 6.5t-34.5 1.5q-69 0 -122 -12.5t-88 -39.5q-27 -21 -41.5 -51t-14.5 -69q0 -51 33 -82q34 -32 88 -32q26 0 52.5 7t52.5 19q25 12 47 29t36 37zM942 74q-30 -50 -80 -74q-22 -11 -47 -15.5t-51 -4.5q-59 0 -102 29q-41 28 -64 79q-42 -50 -103 -77 q-68 -31 -153 -31q-68 0 -124 22t-95 62q-33 34 -51.5 78t-18.5 96q0 42 8 78t22 67q29 63 79.5 106t113.5 69q62 26 129 37t127 11q15 0 32.5 -0.5t34.5 -2t32.5 -3.5t25.5 -4q2 8 3.5 22.5t1.5 20.5q0 57 -41 85t-121 28q-55 0 -117 -20q-31 -10 -60.5 -24.5t-56.5 -31.5 l-57 174q32 14 73 27t85 23t87 16t81 6q143 0 224 -42q63 -32 91.5 -86t28.5 -130q0 -19 -2.5 -44.5t-9 -65t-17 -96t-25.5 -139.5q-6 -32 -9 -62t-3 -50q0 -33 12 -58t30.5 -42t41 -24.5t43.5 -6.5zM573 1112l-186 352h231l115 -352h-160z" />
<glyph unicode="&#xe1;" horiz-adv-x="991" d="M633 434q-22 5 -45.5 6.5t-34.5 1.5q-69 0 -122 -12.5t-88 -39.5q-27 -21 -41.5 -51t-14.5 -69q0 -51 33 -82q34 -32 88 -32q26 0 52.5 7t52.5 19q25 12 47 29t36 37zM942 74q-30 -50 -80 -74q-22 -11 -47 -15.5t-51 -4.5q-59 0 -102 29q-41 28 -64 79q-42 -50 -103 -77 q-68 -31 -153 -31q-68 0 -124 22t-95 62q-33 34 -51.5 78t-18.5 96q0 42 8 78t22 67q29 63 79.5 106t113.5 69q62 26 129 37t127 11q15 0 32.5 -0.5t34.5 -2t32.5 -3.5t25.5 -4q2 8 3.5 22.5t1.5 20.5q0 57 -41 85t-121 28q-55 0 -117 -20q-31 -10 -60.5 -24.5t-56.5 -31.5 l-57 174q32 14 73 27t85 23t87 16t81 6q143 0 224 -42q63 -32 91.5 -86t28.5 -130q0 -19 -2.5 -44.5t-9 -65t-17 -96t-25.5 -139.5q-6 -32 -9 -62t-3 -50q0 -33 12 -58t30.5 -42t41 -24.5t43.5 -6.5zM964 1464l-274 -352h-178l225 352h227z" />
<glyph unicode="&#xe2;" horiz-adv-x="991" d="M633 434q-22 5 -45.5 6.5t-34.5 1.5q-69 0 -122 -12.5t-88 -39.5q-27 -21 -41.5 -51t-14.5 -69q0 -51 33 -82q34 -32 88 -32q26 0 52.5 7t52.5 19q25 12 47 29t36 37zM942 74q-30 -50 -80 -74q-22 -11 -47 -15.5t-51 -4.5q-59 0 -102 29q-41 28 -64 79q-42 -50 -103 -77 q-68 -31 -153 -31q-68 0 -124 22t-95 62q-33 34 -51.5 78t-18.5 96q0 42 8 78t22 67q29 63 79.5 106t113.5 69q62 26 129 37t127 11q15 0 32.5 -0.5t34.5 -2t32.5 -3.5t25.5 -4q2 8 3.5 22.5t1.5 20.5q0 57 -41 85t-121 28q-55 0 -117 -20q-31 -10 -60.5 -24.5t-56.5 -31.5 l-57 174q32 14 73 27t85 23t87 16t81 6q143 0 224 -42q63 -32 91.5 -86t28.5 -130q0 -19 -2.5 -44.5t-9 -65t-17 -96t-25.5 -139.5q-6 -32 -9 -62t-3 -50q0 -33 12 -58t30.5 -42t41 -24.5t43.5 -6.5zM737 1112l-103 182l-174 -182h-211l349 352h120l240 -352h-221z" />
<glyph unicode="&#xe3;" horiz-adv-x="991" d="M633 434q-22 5 -45.5 6.5t-34.5 1.5q-69 0 -122 -12.5t-88 -39.5q-27 -21 -41.5 -51t-14.5 -69q0 -51 33 -82q34 -32 88 -32q26 0 52.5 7t52.5 19q25 12 47 29t36 37zM942 74q-30 -50 -80 -74q-22 -11 -47 -15.5t-51 -4.5q-59 0 -102 29q-41 28 -64 79q-42 -50 -103 -77 q-68 -31 -153 -31q-68 0 -124 22t-95 62q-33 34 -51.5 78t-18.5 96q0 42 8 78t22 67q29 63 79.5 106t113.5 69q62 26 129 37t127 11q15 0 32.5 -0.5t34.5 -2t32.5 -3.5t25.5 -4q2 8 3.5 22.5t1.5 20.5q0 57 -41 85t-121 28q-55 0 -117 -20q-31 -10 -60.5 -24.5t-56.5 -31.5 l-57 174q32 14 73 27t85 23t87 16t81 6q143 0 224 -42q63 -32 91.5 -86t28.5 -130q0 -19 -2.5 -44.5t-9 -65t-17 -96t-25.5 -139.5q-6 -32 -9 -62t-3 -50q0 -33 12 -58t30.5 -42t41 -24.5t43.5 -6.5zM942 1427q-43 -108 -104 -166q-66 -61 -144 -61q-47 0 -81.5 15t-63.5 30 q-23 13 -44.5 23t-35.5 10q-57 0 -111 -78h-116q14 50 46 100t76 84q26 20 54.5 31.5t58.5 11.5q57 0 95 -16t67 -33q17 -11 35.5 -19.5t40.5 -8.5q67 0 106 77h121z" />
<glyph unicode="&#xe4;" horiz-adv-x="991" d="M633 434q-22 5 -45.5 6.5t-34.5 1.5q-69 0 -122 -12.5t-88 -39.5q-27 -21 -41.5 -51t-14.5 -69q0 -51 33 -82q34 -32 88 -32q26 0 52.5 7t52.5 19q25 12 47 29t36 37zM942 74q-30 -50 -80 -74q-22 -11 -47 -15.5t-51 -4.5q-59 0 -102 29q-41 28 -64 79q-42 -50 -103 -77 q-68 -31 -153 -31q-68 0 -124 22t-95 62q-33 34 -51.5 78t-18.5 96q0 42 8 78t22 67q29 63 79.5 106t113.5 69q62 26 129 37t127 11q15 0 32.5 -0.5t34.5 -2t32.5 -3.5t25.5 -4q2 8 3.5 22.5t1.5 20.5q0 57 -41 85t-121 28q-55 0 -117 -20q-31 -10 -60.5 -24.5t-56.5 -31.5 l-57 174q32 14 73 27t85 23t87 16t81 6q143 0 224 -42q63 -32 91.5 -86t28.5 -130q0 -19 -2.5 -44.5t-9 -65t-17 -96t-25.5 -139.5q-6 -32 -9 -62t-3 -50q0 -33 12 -58t30.5 -42t41 -24.5t43.5 -6.5zM811 1415q26 0 49 -11t40 -29q15 -17 23.5 -38.5t8.5 -44.5 q0 -44 -26 -76q-17 -21 -41.5 -34t-53.5 -13q-25 0 -47 9.5t-39 25.5q-17 17 -27 39.5t-10 48.5q0 40 24 72q17 23 42.5 37t56.5 14zM430 1415q23 0 42.5 -7.5t35.5 -21.5q20 -17 31.5 -41.5t11.5 -52.5q0 -50 -34 -86q-17 -17 -39 -27t-48 -10q-31 0 -56.5 13.5t-42.5 36.5 q-24 32 -24 73q0 26 10 49t28 40q17 16 38.5 25t46.5 9z" />
<glyph unicode="&#xe5;" horiz-adv-x="991" d="M633 434q-22 5 -45.5 6.5t-34.5 1.5q-69 0 -122 -12.5t-88 -39.5q-27 -21 -41.5 -51t-14.5 -69q0 -51 33 -82q34 -32 88 -32q26 0 52.5 7t52.5 19q25 12 47 29t36 37zM942 74q-30 -50 -80 -74q-22 -11 -47 -15.5t-51 -4.5q-59 0 -102 29q-41 28 -64 79q-42 -50 -103 -77 q-68 -31 -153 -31q-68 0 -124 22t-95 62q-33 34 -51.5 78t-18.5 96q0 42 8 78t22 67q29 63 79.5 106t113.5 69q62 26 129 37t127 11q15 0 32.5 -0.5t34.5 -2t32.5 -3.5t25.5 -4q2 8 3.5 22.5t1.5 20.5q0 57 -41 85t-121 28q-55 0 -117 -20q-31 -10 -60.5 -24.5t-56.5 -31.5 l-57 174q32 14 73 27t85 23t87 16t81 6q143 0 224 -42q63 -32 91.5 -86t28.5 -130q0 -19 -2.5 -44.5t-9 -65t-17 -96t-25.5 -139.5q-6 -32 -9 -62t-3 -50q0 -33 12 -58t30.5 -42t41 -24.5t43.5 -6.5zM616 1573q42 0 79.5 -15.5t66.5 -43.5q30 -29 47.5 -67t17.5 -83 q0 -38 -12 -71t-34 -60q-29 -37 -71.5 -58.5t-93.5 -21.5q-43 0 -81 16t-67 44q-29 29 -46 67.5t-17 83.5q0 44 17.5 82t46.5 67q29 28 67 44t80 16zM616 1264q21 0 39.5 7.5t32.5 21.5q29 29 29 71q0 23 -10.5 43t-27.5 34q-27 21 -63 21q-23 0 -43.5 -9.5t-34.5 -25.5 q-24 -27 -24 -63q0 -34 21 -61q14 -18 35.5 -28.5t45.5 -10.5z" />
<glyph unicode="&#xe6;" horiz-adv-x="1509" d="M1278 674q0 35 -34 56.5t-91 21.5q-42 0 -81 -15.5t-73 -41.5q-40 -30 -69 -68.5t-43 -73.5q28 -8 57 -12t60 -4q23 0 50 2t54.5 6.5t54.5 12t49 19.5q29 16 47.5 39.5t18.5 57.5zM635 270q-6 32 -9 56.5t-3 46.5q0 10 0.5 20.5t1.5 19.5q1 11 2 21q-20 5 -42.5 6.5 t-31.5 1.5q-66 0 -118.5 -12t-87.5 -37q-60 -43 -60 -123q0 -51 33 -82q34 -32 88 -32q28 0 59.5 8t63.5 25q26 14 52 34t52 47zM1489 688q0 -51 -14.5 -92t-40.5 -75q-31 -40 -73.5 -68.5t-93.5 -48.5q-56 -21 -116.5 -31.5t-120.5 -10.5q-48 0 -93.5 7t-90.5 24v-39 q0 -84 45 -134q54 -60 164 -60q25 0 58.5 7.5t67.5 21.5q32 13 60.5 29.5t44.5 35.5l-22 -223q-26 -11 -56 -20.5t-62 -16.5q-68 -14 -145 -14q-56 0 -102.5 11.5t-87.5 34.5q-37 20 -68 49t-57 66q-40 -38 -75 -64.5t-66 -44.5q-30 -17 -56.5 -27.5t-51 -16t-48 -7 t-47.5 -1.5q-48 0 -91 11.5t-78 33.5q-26 16 -47 36t-36 45q-37 59 -37 132q0 92 37 161q29 54 73.5 91t98.5 62q65 29 135.5 41.5t134.5 12.5q15 0 32.5 -0.5t34.5 -2t32.5 -3.5t25.5 -4q2 8 3.5 22.5t1.5 20.5q0 57 -41 85t-121 28q-33 0 -67 -8t-69 -22 q-26 -10 -50.5 -21.5t-47.5 -24.5l-57 174q32 14 73 27t85 23t87 16t81 6q117 0 187 -29q67 -28 107 -86q61 50 137 79q93 36 201 36q45 0 89 -6.5t82 -20.5q34 -13 62 -31.5t48 -44.5t30.5 -58t10.5 -73z" />
<glyph unicode="&#xe7;" horiz-adv-x="854" d="M784 682q-46 31 -89.5 48.5t-90.5 17.5q-76 0 -134.5 -29.5t-99.5 -80.5q-44 -54 -65.5 -124.5t-21.5 -146.5q0 -40 12 -76.5t35 -65.5t56 -46t75 -17q62 0 132 27q32 12 65 29t69 40l-27 -221q-29 -13 -59.5 -22.5t-60.5 -17.5q-36 -8 -72 -12.5t-74 -4.5 q-101 0 -179 36q-102 47 -152 145q-40 77 -40 177q0 136 46 254q31 78 80.5 141t117.5 108q59 38 130 59.5t155 21.5q69 0 126.5 -13.5t108.5 -42.5zM221 -311q39 0 73.5 4t60.5 14t41.5 26t15.5 42q0 21 -19 35t-59 14l18 119q51 0 90 -13.5t63 -39.5q32 -35 32 -87 q0 -49 -18 -85.5t-50 -62.5q-42 -33 -104 -49t-140 -16z" />
<glyph unicode="&#xe8;" horiz-adv-x="954" d="M291 393v-39q0 -92 50 -140q54 -54 159 -54q25 0 59.5 7.5t68.5 21.5q32 13 59.5 29.5t43.5 35.5l-22 -223q-26 -11 -56 -20.5t-62 -16.5q-68 -14 -145 -14q-85 0 -152 28.5t-118 79.5q-54 54 -80 126t-26 165q0 115 38 212q30 79 82 142t122 107q63 39 138.5 60.5 t161.5 21.5q68 0 130.5 -14.5t109.5 -49.5q38 -28 60 -69.5t22 -100.5q0 -54 -17 -98t-46 -79q-36 -43 -87 -72.5t-110 -47.5q-98 -29 -199 -29q-48 0 -93.5 7t-90.5 24zM332 553q28 -8 57 -12t60 -4q21 0 46 1.5t51 5.5t51.5 10.5t47.5 16.5q34 16 56 40.5t22 62.5 q0 35 -34 57q-33 21 -91 21q-42 0 -81.5 -16t-73.5 -42q-40 -30 -68.5 -68t-42.5 -73zM579 1112l-186 352h231l115 -352h-160z" />
<glyph unicode="&#xe9;" horiz-adv-x="954" d="M291 393v-39q0 -92 50 -140q54 -54 159 -54q25 0 59.5 7.5t68.5 21.5q32 13 59.5 29.5t43.5 35.5l-22 -223q-26 -11 -56 -20.5t-62 -16.5q-68 -14 -145 -14q-85 0 -152 28.5t-118 79.5q-54 54 -80 126t-26 165q0 115 38 212q30 79 82 142t122 107q63 39 138.5 60.5 t161.5 21.5q68 0 130.5 -14.5t109.5 -49.5q38 -28 60 -69.5t22 -100.5q0 -54 -17 -98t-46 -79q-36 -43 -87 -72.5t-110 -47.5q-98 -29 -199 -29q-48 0 -93.5 7t-90.5 24zM332 553q28 -8 57 -12t60 -4q21 0 46 1.5t51 5.5t51.5 10.5t47.5 16.5q34 16 56 40.5t22 62.5 q0 35 -34 57q-33 21 -91 21q-42 0 -81.5 -16t-73.5 -42q-40 -30 -68.5 -68t-42.5 -73zM985 1464l-274 -352h-178l225 352h227z" />
<glyph unicode="&#xea;" horiz-adv-x="954" d="M291 393v-39q0 -92 50 -140q54 -54 159 -54q25 0 59.5 7.5t68.5 21.5q32 13 59.5 29.5t43.5 35.5l-22 -223q-26 -11 -56 -20.5t-62 -16.5q-68 -14 -145 -14q-85 0 -152 28.5t-118 79.5q-54 54 -80 126t-26 165q0 115 38 212q30 79 82 142t122 107q63 39 138.5 60.5 t161.5 21.5q68 0 130.5 -14.5t109.5 -49.5q38 -28 60 -69.5t22 -100.5q0 -54 -17 -98t-46 -79q-36 -43 -87 -72.5t-110 -47.5q-98 -29 -199 -29q-48 0 -93.5 7t-90.5 24zM332 553q28 -8 57 -12t60 -4q21 0 46 1.5t51 5.5t51.5 10.5t47.5 16.5q34 16 56 40.5t22 62.5 q0 35 -34 57q-33 21 -91 21q-42 0 -81.5 -16t-73.5 -42q-40 -30 -68.5 -68t-42.5 -73zM748 1112l-103 182l-174 -182h-211l349 352h120l240 -352h-221z" />
<glyph unicode="&#xeb;" horiz-adv-x="954" d="M291 393v-39q0 -92 50 -140q54 -54 159 -54q25 0 59.5 7.5t68.5 21.5q32 13 59.5 29.5t43.5 35.5l-22 -223q-26 -11 -56 -20.5t-62 -16.5q-68 -14 -145 -14q-85 0 -152 28.5t-118 79.5q-54 54 -80 126t-26 165q0 115 38 212q30 79 82 142t122 107q63 39 138.5 60.5 t161.5 21.5q68 0 130.5 -14.5t109.5 -49.5q38 -28 60 -69.5t22 -100.5q0 -54 -17 -98t-46 -79q-36 -43 -87 -72.5t-110 -47.5q-98 -29 -199 -29q-48 0 -93.5 7t-90.5 24zM332 553q28 -8 57 -12t60 -4q21 0 46 1.5t51 5.5t51.5 10.5t47.5 16.5q34 16 56 40.5t22 62.5 q0 35 -34 57q-33 21 -91 21q-42 0 -81.5 -16t-73.5 -42q-40 -30 -68.5 -68t-42.5 -73zM819 1415q26 0 49 -11t40 -29q15 -17 23.5 -38.5t8.5 -44.5q0 -44 -26 -76q-17 -21 -41.5 -34t-53.5 -13q-25 0 -47 9.5t-39 25.5q-17 17 -27 39.5t-10 48.5q0 40 24 72q17 23 42.5 37 t56.5 14zM438 1415q23 0 42.5 -7.5t35.5 -21.5q20 -17 31.5 -41.5t11.5 -52.5q0 -50 -34 -86q-17 -17 -39 -27t-48 -10q-31 0 -56.5 13.5t-42.5 36.5q-24 32 -24 73q0 26 10 49t28 40q17 16 38.5 25t46.5 9z" />
<glyph unicode="&#xec;" horiz-adv-x="524" d="M354 1112l-186 352h231l115 -352h-160zM303 0h-215l137 731h-116l36 170h328z" />
<glyph unicode="&#xed;" horiz-adv-x="524" d="M708 1464l-274 -352h-178l225 352h227zM303 0h-215l137 731h-116l36 170h328z" />
<glyph unicode="&#xee;" horiz-adv-x="524" d="M492 1112l-103 182l-174 -182h-211l349 352h120l240 -352h-221zM303 0h-215l137 731h-116l36 170h328z" />
<glyph unicode="&#xef;" horiz-adv-x="524" d="M576 1415q26 0 49 -11t40 -29q15 -17 23.5 -38.5t8.5 -44.5q0 -44 -26 -76q-17 -21 -41.5 -34t-53.5 -13q-25 0 -47 9.5t-39 25.5q-17 17 -27 39.5t-10 48.5q0 40 24 72q17 23 42.5 37t56.5 14zM195 1415q23 0 42.5 -7.5t35.5 -21.5q20 -17 31.5 -41.5t11.5 -52.5 q0 -50 -34 -86q-17 -17 -39 -27t-48 -10q-31 0 -56.5 13.5t-42.5 36.5q-24 32 -24 73q0 26 10 49t28 40q17 16 38.5 25t46.5 9zM303 0h-215l137 731h-116l36 170h328z" />
<glyph unicode="&#xf0;" horiz-adv-x="987" d="M956 614q0 -97 -20 -188t-60 -170q-29 -57 -68.5 -105.5t-90.5 -84.5q-57 -41 -128 -63.5t-157 -22.5q-55 0 -101.5 10t-84.5 28q-79 38 -124 112q-54 89 -54 218q0 66 13 129.5t38 121.5q29 69 73.5 126.5t102.5 100.5q61 45 134.5 70.5t158.5 25.5q20 0 45.5 -2 t48.5 -7q-12 37 -31.5 77t-41 77t-43.5 67t-40 48l-190 -95l-37 95l164 80l-184 202h311l86 -100l182 90l43 -90l-168 -82q48 -63 93 -148.5t77 -188.5q24 -76 38.5 -159t14.5 -172zM287 352q0 -96 41 -146q43 -52 133 -52q54 0 97.5 24.5t78.5 66.5q47 57 72.5 138 t25.5 172q0 99 -44 147q-43 48 -132 48q-72 0 -123 -37t-84 -94q-34 -59 -49.5 -130t-15.5 -137z" />
<glyph unicode="&#xf1;" horiz-adv-x="993" d="M793 0h-217l100 526q8 41 9.5 64t1.5 45q0 49 -24 76q-31 37 -109 37q-52 0 -103 -23q-26 -12 -49.5 -30t-46.5 -44l-121 -651h-217l127 680q2 8 3 20t1 27q0 38 -5.5 78t-16.5 84l204 37l21 -99q51 42 116 67q72 28 164 28q78 0 132 -19q72 -25 110 -86q37 -59 37 -155 q0 -46 -12 -111zM954 1427q-43 -108 -104 -166q-66 -61 -144 -61q-47 0 -81.5 15t-63.5 30q-23 13 -44.5 23t-35.5 10q-57 0 -111 -78h-116q14 50 46 100t76 84q26 20 54.5 31.5t58.5 11.5q57 0 95 -16t67 -33q17 -11 35.5 -19.5t40.5 -8.5q67 0 106 77h121z" />
<glyph unicode="&#xf2;" horiz-adv-x="987" d="M59 338q0 149 61 277q32 69 79.5 125.5t108.5 97.5q60 40 130.5 62t151.5 22q190 0 284 -105q39 -45 59.5 -105.5t20.5 -138.5q0 -121 -40 -233q-25 -70 -65 -130.5t-94 -107.5q-66 -57 -148.5 -89.5t-182.5 -32.5q-154 0 -248 76q-57 46 -87 116.5t-30 165.5zM281 350 q0 -102 45 -150q41 -44 123 -44q36 0 66.5 9t56.5 26q41 26 69.5 66t48.5 88q21 54 31 111t10 111q0 105 -53 149q-40 34 -113 34q-48 0 -86.5 -16.5t-70.5 -45.5q-34 -31 -58 -72t-40 -89q-14 -44 -21.5 -89.5t-7.5 -87.5zM606 1112l-186 352h231l115 -352h-160z" />
<glyph unicode="&#xf3;" horiz-adv-x="987" d="M59 338q0 149 61 277q32 69 79.5 125.5t108.5 97.5q60 40 130.5 62t151.5 22q190 0 284 -105q39 -45 59.5 -105.5t20.5 -138.5q0 -121 -40 -233q-25 -70 -65 -130.5t-94 -107.5q-66 -57 -148.5 -89.5t-182.5 -32.5q-154 0 -248 76q-57 46 -87 116.5t-30 165.5zM281 350 q0 -102 45 -150q41 -44 123 -44q36 0 66.5 9t56.5 26q41 26 69.5 66t48.5 88q21 54 31 111t10 111q0 105 -53 149q-40 34 -113 34q-48 0 -86.5 -16.5t-70.5 -45.5q-34 -31 -58 -72t-40 -89q-14 -44 -21.5 -89.5t-7.5 -87.5zM919 1464l-274 -352h-178l225 352h227z" />
<glyph unicode="&#xf4;" horiz-adv-x="987" d="M59 338q0 149 61 277q32 69 79.5 125.5t108.5 97.5q60 40 130.5 62t151.5 22q190 0 284 -105q39 -45 59.5 -105.5t20.5 -138.5q0 -121 -40 -233q-25 -70 -65 -130.5t-94 -107.5q-66 -57 -148.5 -89.5t-182.5 -32.5q-154 0 -248 76q-57 46 -87 116.5t-30 165.5zM281 350 q0 -102 45 -150q41 -44 123 -44q36 0 66.5 9t56.5 26q41 26 69.5 66t48.5 88q21 54 31 111t10 111q0 105 -53 149q-40 34 -113 34q-48 0 -86.5 -16.5t-70.5 -45.5q-34 -31 -58 -72t-40 -89q-14 -44 -21.5 -89.5t-7.5 -87.5zM764 1112l-103 182l-174 -182h-211l349 352h120 l240 -352h-221z" />
<glyph unicode="&#xf5;" horiz-adv-x="987" d="M59 338q0 149 61 277q32 69 79.5 125.5t108.5 97.5q60 40 130.5 62t151.5 22q190 0 284 -105q39 -45 59.5 -105.5t20.5 -138.5q0 -121 -40 -233q-25 -70 -65 -130.5t-94 -107.5q-66 -57 -148.5 -89.5t-182.5 -32.5q-154 0 -248 76q-57 46 -87 116.5t-30 165.5zM281 350 q0 -102 45 -150q41 -44 123 -44q36 0 66.5 9t56.5 26q41 26 69.5 66t48.5 88q21 54 31 111t10 111q0 105 -53 149q-40 34 -113 34q-48 0 -86.5 -16.5t-70.5 -45.5q-34 -31 -58 -72t-40 -89q-14 -44 -21.5 -89.5t-7.5 -87.5zM965 1427q-43 -108 -104 -166q-66 -61 -144 -61 q-47 0 -81.5 15t-63.5 30q-23 13 -44.5 23t-35.5 10q-57 0 -111 -78h-116q14 50 46 100t76 84q26 20 54.5 31.5t58.5 11.5q57 0 95 -16t67 -33q17 -11 35.5 -19.5t40.5 -8.5q67 0 106 77h121z" />
<glyph unicode="&#xf6;" horiz-adv-x="987" d="M59 338q0 149 61 277q32 69 79.5 125.5t108.5 97.5q60 40 130.5 62t151.5 22q190 0 284 -105q39 -45 59.5 -105.5t20.5 -138.5q0 -121 -40 -233q-25 -70 -65 -130.5t-94 -107.5q-66 -57 -148.5 -89.5t-182.5 -32.5q-154 0 -248 76q-57 46 -87 116.5t-30 165.5zM281 350 q0 -102 45 -150q41 -44 123 -44q36 0 66.5 9t56.5 26q41 26 69.5 66t48.5 88q21 54 31 111t10 111q0 105 -53 149q-40 34 -113 34q-48 0 -86.5 -16.5t-70.5 -45.5q-34 -31 -58 -72t-40 -89q-14 -44 -21.5 -89.5t-7.5 -87.5zM826 1415q26 0 49 -11t40 -29q15 -17 23.5 -38.5 t8.5 -44.5q0 -44 -26 -76q-17 -21 -41.5 -34t-53.5 -13q-25 0 -47 9.5t-39 25.5q-17 17 -27 39.5t-10 48.5q0 40 24 72q17 23 42.5 37t56.5 14zM445 1415q23 0 42.5 -7.5t35.5 -21.5q20 -17 31.5 -41.5t11.5 -52.5q0 -50 -34 -86q-17 -17 -39 -27t-48 -10q-31 0 -56.5 13.5 t-42.5 36.5q-24 32 -24 73q0 26 10 49t28 40q17 16 38.5 25t46.5 9z" />
<glyph unicode="&#xf7;" horiz-adv-x="1382" d="M543 975q0 32 12 59t33 47q20 19 46 30t56 11q35 0 65 -15t50 -41q15 -19 24 -42t9 -49q0 -32 -13 -60t-35 -48q-20 -18 -45.5 -29t-54.5 -11q-32 0 -59 12t-47 33q-19 20 -30 46.5t-11 56.5zM543 287q0 30 11 56t30 46q20 21 47 33t59 12q31 0 58.5 -12.5t47.5 -33.5 q20 -20 31 -46t11 -55q0 -54 -35 -95q-20 -24 -49 -38.5t-64 -14.5q-32 0 -58 11.5t-46 31.5t-31.5 47t-11.5 58zM199 530v201h983v-201h-983z" />
<glyph unicode="&#xf8;" horiz-adv-x="987" d="M281 350v-24t2 -23l393 414q-20 15 -48 24t-63 9q-38 0 -71 -11t-61 -31q-39 -28 -67.5 -69.5t-47.5 -89.5t-28 -99.5t-9 -99.5zM731 567v18t-2 17l-393 -414q42 -32 113 -32q41 0 75 11.5t62 32.5q38 28 65 68t44 88q19 51 27.5 105.5t8.5 105.5zM899 780 q26 -40 40.5 -92t14.5 -115q0 -128 -44 -242q-29 -75 -74 -138.5t-107 -111.5q-63 -48 -139 -74.5t-166 -26.5q-69 0 -126.5 15t-102.5 46l-58 -61l-143 20l119 125q-26 43 -40 95.5t-14 117.5q0 127 46 242q30 75 77 137.5t110 108.5q62 45 136.5 70.5t161.5 25.5 q69 0 125.5 -15t99.5 -43l55 58l144 -21z" />
<glyph unicode="&#xf9;" horiz-adv-x="965" d="M784 0h-190l-8 66q-50 -38 -113 -59q-38 -13 -81 -20t-91 -7q-62 0 -109.5 20t-79.5 57q-59 67 -59 179q0 18 1.5 40.5t6.5 47.5l109 577h213l-104 -569q-7 -35 -7 -64q0 -52 29 -79q31 -29 94 -29q42 0 79.5 13t69.5 36q42 31 69.5 75.5t35.5 98.5l90 518h213zM569 1112 l-186 352h231l115 -352h-160z" />
<glyph unicode="&#xfa;" horiz-adv-x="965" d="M784 0h-190l-8 66q-50 -38 -113 -59q-38 -13 -81 -20t-91 -7q-62 0 -109.5 20t-79.5 57q-59 67 -59 179q0 18 1.5 40.5t6.5 47.5l109 577h213l-104 -569q-7 -35 -7 -64q0 -52 29 -79q31 -29 94 -29q42 0 79.5 13t69.5 36q42 31 69.5 75.5t35.5 98.5l90 518h213zM936 1464 l-274 -352h-178l225 352h227z" />
<glyph unicode="&#xfb;" horiz-adv-x="965" d="M784 0h-190l-8 66q-50 -38 -113 -59q-38 -13 -81 -20t-91 -7q-62 0 -109.5 20t-79.5 57q-59 67 -59 179q0 18 1.5 40.5t6.5 47.5l109 577h213l-104 -569q-7 -35 -7 -64q0 -52 29 -79q31 -29 94 -29q42 0 79.5 13t69.5 36q42 31 69.5 75.5t35.5 98.5l90 518h213zM733 1112 l-103 182l-174 -182h-211l349 352h120l240 -352h-221z" />
<glyph unicode="&#xfc;" horiz-adv-x="965" d="M784 0h-190l-8 66q-50 -38 -113 -59q-38 -13 -81 -20t-91 -7q-62 0 -109.5 20t-79.5 57q-59 67 -59 179q0 18 1.5 40.5t6.5 47.5l109 577h213l-104 -569q-7 -35 -7 -64q0 -52 29 -79q31 -29 94 -29q42 0 79.5 13t69.5 36q42 31 69.5 75.5t35.5 98.5l90 518h213zM823 1415 q26 0 49 -11t40 -29q15 -17 23.5 -38.5t8.5 -44.5q0 -44 -26 -76q-17 -21 -41.5 -34t-53.5 -13q-25 0 -47 9.5t-39 25.5q-17 17 -27 39.5t-10 48.5q0 40 24 72q17 23 42.5 37t56.5 14zM442 1415q23 0 42.5 -7.5t35.5 -21.5q20 -17 31.5 -41.5t11.5 -52.5q0 -50 -34 -86 q-17 -17 -39 -27t-48 -10q-31 0 -56.5 13.5t-42.5 36.5q-24 32 -24 73q0 26 10 49t28 40q17 16 38.5 25t46.5 9z" />
<glyph unicode="&#xfd;" horiz-adv-x="977" d="M502 -145q-62 -125 -176 -191q-127 -74 -314 -74v205q131 0 208 43q68 37 97 111l25 61l-219 891h221l137 -594l281 594h237zM925 1464l-274 -352h-178l225 352h227z" />
<glyph unicode="&#xfe;" horiz-adv-x="1036" d="M258 23l-76 -413h-211l324 1854h209l-107 -624q20 19 45.5 34.5t56.5 26.5q59 21 136 21q53 0 96.5 -9.5t78.5 -26.5q42 -20 72 -49.5t51 -67.5q23 -44 34.5 -96t11.5 -112q0 -155 -56 -281q-34 -78 -88.5 -138.5t-127.5 -99.5q-56 -30 -121 -46t-140 -16 q-49 0 -98.5 11.5t-89.5 31.5zM289 205q20 -22 52 -32.5t73 -10.5q99 0 172 35q91 45 134 142q38 85 38 204q0 49 -18.5 88t-50.5 65q-26 20 -59 31.5t-71 11.5q-33 0 -62.5 -7.5t-54 -19.5t-43.5 -28t-32 -33z" />
<glyph unicode="&#xff;" horiz-adv-x="977" d="M502 -145q-62 -125 -176 -191q-127 -74 -314 -74v205q131 0 208 43q68 37 97 111l25 61l-219 891h221l137 -594l281 594h237zM770 1415q26 0 49 -11t40 -29q15 -17 23.5 -38.5t8.5 -44.5q0 -44 -26 -76q-17 -21 -41.5 -34t-53.5 -13q-25 0 -47 9.5t-39 25.5 q-17 17 -27 39.5t-10 48.5q0 40 24 72q17 23 42.5 37t56.5 14zM389 1415q23 0 42.5 -7.5t35.5 -21.5q20 -17 31.5 -41.5t11.5 -52.5q0 -50 -34 -86q-17 -17 -39 -27t-48 -10q-31 0 -56.5 13.5t-42.5 36.5q-24 32 -24 73q0 26 10 49t28 40q17 16 38.5 25t46.5 9z" />
<glyph unicode="&#x131;" horiz-adv-x="524" d="M303 0h-215l137 731h-116l36 170h328z" />
<glyph unicode="&#x141;" horiz-adv-x="1081" d="M14 774l197 86l113 604h254l-89 -479l240 102v-165l-274 -119l-105 -576h662l-41 -227h-918l125 682l-164 -74v166z" />
<glyph unicode="&#x142;" horiz-adv-x="555" d="M657 1090v-168l-247 -123l-62 -297q-22 -107 -34.5 -178.5t-12.5 -116.5q0 -28 10 -52.5t27.5 -42.5t41 -28t50.5 -10q-57 -94 -178 -94q-85 0 -130 62q-38 52 -38 140q0 29 7.5 93.5t27.5 158.5l51 246l-150 -74v168l189 94l127 596h213l-100 -477z" />
<glyph unicode="&#x152;" horiz-adv-x="1974" d="M365 575q0 -79 17.5 -153t59.5 -128q32 -40 78.5 -63.5t112.5 -23.5q63 0 118 12.5t101 40.5h2l176 959h-2q-35 23 -78.5 34t-99.5 11q-86 0 -156 -36.5t-126 -96.5q-52 -57 -90.5 -127.5t-64.5 -147.5q-24 -72 -36 -144.5t-12 -136.5zM1968 1237h-676l-61 -338h485 l-41 -217h-485l-82 -455h666l-43 -227h-922q-50 -12 -101.5 -16t-107.5 -4q-86 0 -156.5 21.5t-127.5 61.5q-50 35 -88 81.5t-64 103.5q-62 132 -62 301q0 99 15.5 195.5t47.5 188.5q41 119 107 222t157 179q88 74 197.5 115.5t241.5 41.5q56 0 107.5 -7t97.5 -20h938z" />
<glyph unicode="&#x153;" horiz-adv-x="1587" d="M1577 688q0 -47 -12.5 -86.5t-35.5 -71.5q-26 -37 -62.5 -65.5t-81.5 -48.5q-61 -28 -130 -41t-137 -13q-48 0 -93.5 7t-90.5 24v-39q0 -54 18 -93t51 -63q53 -38 140 -38q26 0 62.5 9t71.5 23q30 13 56 28.5t41 33.5l-22 -223q-25 -11 -52.5 -19.5t-56.5 -14.5 q-70 -15 -153 -15q-86 0 -154 28q-66 27 -117 78q-11 9 -20 19.5t-17 21.5q-67 -68 -153 -107q-46 -20 -97 -31t-108 -11q-107 0 -188 38q-93 44 -138 136q-19 38 -29 84t-10 100q0 64 12 125.5t35 118.5q29 70 72.5 129.5t100.5 104.5q63 50 141.5 78t169.5 28 q106 0 184 -35q75 -34 119 -94q69 58 154 91q48 18 99.5 28t108.5 10q73 0 140.5 -17.5t114.5 -58.5q31 -28 49 -66.5t18 -91.5zM281 350q0 -100 43 -147q42 -47 125 -47q57 0 100.5 21.5t75.5 57.5q28 32 48 71.5t33 83.5t19 89.5t6 87.5q0 114 -64 157q-40 26 -102 26 q-63 0 -111 -28.5t-83 -74.5q-23 -30 -40 -66.5t-28 -75.5t-16.5 -78.5t-5.5 -76.5zM961 553q27 -8 63.5 -12t67.5 -4q23 0 50 2t54.5 6.5t54.5 12t49 19.5q29 16 47.5 39.5t18.5 57.5q0 35 -31 54q-34 20 -104 20q-47 0 -90 -18t-79 -46q-37 -29 -63 -64t-38 -67z" />
<glyph unicode="&#x160;" horiz-adv-x="1026" d="M938 1180q-29 22 -63.5 37.5t-70.5 26.5q-64 18 -124 18q-53 0 -96.5 -14t-73.5 -43q-24 -23 -37.5 -54t-13.5 -72q0 -18 10 -39.5t27 -45.5t41.5 -49t52.5 -50q35 -31 74.5 -63.5t74.5 -63.5q54 -47 100 -94.5t75 -104.5q18 -35 28 -75.5t10 -87.5q0 -57 -12 -105 t-35 -90q-32 -57 -80 -99t-109 -71q-66 -31 -142.5 -46t-157.5 -15q-96 0 -184 19q-97 22 -185 64l82 254q60 -44 126 -68q84 -30 183 -30q51 0 100.5 12t87.5 39q29 21 46.5 52t17.5 73q0 38 -34.5 82.5t-96.5 95.5q-37 31 -77.5 63.5t-78.5 61.5q-53 43 -96.5 90 t-70.5 103q-18 36 -27.5 76t-9.5 86q0 64 14 119t40 102q30 53 73.5 92.5t97.5 67.5q56 28 120 42.5t136 14.5q56 0 109 -6t100 -15q40 -8 72.5 -17t54.5 -17zM586 1892l102 -182l174 182h211l-348 -352h-121l-239 352h221z" />
<glyph unicode="&#x161;" horiz-adv-x="797" d="M670 657q-51 45 -97 68t-90 23q-24 0 -50.5 -7.5t-46.5 -22.5q-14 -11 -23 -26t-9 -35q0 -46 92 -96l140 -74q49 -26 80.5 -74t31.5 -108q0 -45 -10 -83t-29 -70q-25 -43 -63 -75t-85 -54q-48 -22 -101.5 -32.5t-110.5 -10.5q-76 0 -153 24q-72 23 -138 64l111 190 q27 -25 54 -44t54 -31q49 -23 101 -23q31 0 59 8.5t49 25.5q18 14 28.5 35t10.5 50q0 21 -19.5 44.5t-58.5 43.5l-143 73q-34 17 -58 41.5t-39 53.5q-24 47 -24 100q0 42 10.5 77.5t30.5 64.5q22 33 52.5 58.5t67.5 43.5q45 22 97 32.5t105 10.5q102 0 270 -70zM455 1464 l102 -182l174 182h211l-348 -352h-121l-239 352h221z" />
<glyph unicode="&#x178;" horiz-adv-x="1401" d="M844 647l-119 -647h-250l121 655l-344 809h262l236 -571h8l440 571h289zM1071 1786q26 0 49 -11t40 -29q15 -17 23.5 -38.5t8.5 -44.5q0 -44 -26 -76q-17 -21 -41.5 -34t-53.5 -13q-25 0 -47 9.5t-39 25.5q-17 17 -27 39.5t-10 48.5q0 40 24 72q17 23 42.5 37t56.5 14z M690 1786q23 0 42.5 -7.5t35.5 -21.5q20 -17 31.5 -41.5t11.5 -52.5q0 -50 -34 -86q-17 -17 -39 -27t-48 -10q-31 0 -56.5 13.5t-42.5 36.5q-24 32 -24 73q0 26 10 49t28 40q17 16 38.5 25t46.5 9z" />
<glyph unicode="&#x17d;" horiz-adv-x="1251" d="M477 227h598l-43 -227h-942v84l795 1153h-602l41 227h919v-82zM750 1892l102 -182l174 182h211l-348 -352h-121l-239 352h221z" />
<glyph unicode="&#x17e;" horiz-adv-x="922" d="M377 182h430l-35 -182h-749v72l530 645h-444l34 184h756v-76zM469 1464l102 -182l174 182h211l-348 -352h-121l-239 352h221z" />
<glyph unicode="&#x192;" d="M1075 1284q-35 14 -64.5 22.5t-52.5 8.5q-44 0 -79 -27q-41 -32 -68 -102q-2 -5 -7.5 -26.5t-13 -51t-16 -63t-16 -63.5t-12.5 -52t-7 -29h209l-22 -170h-211l-137 -788q-13 -91 -69 -162q-43 -55 -107 -90q-37 -20 -80 -31.5t-91 -13.5l-45 139q29 5 56.5 21t50.5 39 t39 50t22 56l142 780h-127l26 170h127q2 7 7 29.5t12 53t15.5 64.5t16 64.5t13 54t8.5 31.5q14 50 35 87t47 69q23 29 50 51.5t58 38.5q78 41 185 41q42 0 79 -8.5t68 -28.5z" />
<glyph unicode="&#x2c6;" horiz-adv-x="715" d="M461 1112l-103 182l-174 -182h-211l349 352h120l240 -352h-221z" />
<glyph unicode="&#x2c7;" horiz-adv-x="715" d="M252 1464l102 -182l174 182h211l-348 -352h-121l-239 352h221z" />
<glyph unicode="&#x2d8;" horiz-adv-x="690" d="M715 1464q-12 -73 -53.5 -136.5t-101.5 -111.5q-56 -44 -121 -69t-134 -25q-80 0 -138.5 29t-93.5 80q-49 70 -49 170q0 15 1.5 30.5t3.5 32.5h172q-3 -18 -3 -34q0 -60 36 -96q18 -18 43.5 -28t56.5 -10q38 0 73 12.5t64 35.5q28 22 47 52t25 68h172z" />
<glyph unicode="&#x2d9;" horiz-adv-x="252" d="M125 1409q25 0 46.5 -10t38.5 -27q16 -16 25 -36.5t9 -43.5q0 -39 -24 -71q-17 -22 -41.5 -34.5t-53.5 -12.5q-22 0 -41 7.5t-35 21.5q-19 17 -30 40t-11 49q0 27 10.5 50t29.5 39q15 13 34.5 20.5t42.5 7.5z" />
<glyph unicode="&#x2da;" horiz-adv-x="446" d="M225 1573q42 0 79.5 -15.5t66.5 -43.5q30 -29 47.5 -67t17.5 -83q0 -38 -12 -71t-34 -60q-29 -37 -71.5 -58.5t-93.5 -21.5q-43 0 -81 16t-67 44q-29 29 -46 67.5t-17 83.5q0 44 17.5 82t46.5 67q29 28 67 44t80 16zM225 1264q21 0 39.5 7.5t32.5 21.5q29 29 29 71 q0 23 -10.5 43t-27.5 34q-27 21 -63 21q-23 0 -43.5 -9.5t-34.5 -25.5q-24 -27 -24 -63q0 -34 21 -61q14 -18 35.5 -28.5t45.5 -10.5z" />
<glyph unicode="&#x2db;" horiz-adv-x="465" d="M393 -233l66 -142q-48 -17 -92 -26t-86 -9q-48 0 -91.5 13t-78.5 38q-46 32 -73.5 81.5t-27.5 115.5q0 86 49 156q50 72 156 131l57 -162q-28 -15 -47 -29t-30 -29t-16 -32.5t-5 -38.5q0 -25 11.5 -43.5t28.5 -31.5q16 -11 35 -17t36 -6q56 0 108 31z" />
<glyph unicode="&#x2dc;" horiz-adv-x="670" d="M686 1427q-43 -108 -104 -166q-66 -61 -144 -61q-47 0 -81.5 15t-63.5 30q-23 13 -44.5 23t-35.5 10q-57 0 -111 -78h-116q14 50 46 100t76 84q26 20 54.5 31.5t58.5 11.5q57 0 95 -16t67 -33q17 -11 35.5 -19.5t40.5 -8.5q67 0 106 77h121z" />
<glyph unicode="&#x2dd;" horiz-adv-x="711" d="M739 1464l-274 -352h-178l225 352h227zM424 1464l-274 -352h-179l226 352h227z" />
<glyph unicode="&#x2013;" horiz-adv-x="854" d="M33 336l39 223h747l-39 -223h-747z" />
<glyph unicode="&#x2014;" horiz-adv-x="1712" d="M33 336l39 223h1605l-39 -223h-1605z" />
<glyph unicode="&#x2018;" horiz-adv-x="752" d="M674 1393q-91 -66 -135.5 -109.5t-44.5 -83.5q0 -12 3.5 -20.5t8.5 -18.5q51 -20 76 -52q30 -37 30 -93q0 -64 -39 -111q-23 -27 -56 -43t-75 -16q-37 0 -68.5 15.5t-54.5 41.5q-20 23 -31.5 53.5t-11.5 63.5q0 112 42 194q18 37 45 70.5t62 66.5t78.5 67.5t94.5 72.5z " />
<glyph unicode="&#x2019;" horiz-adv-x="752" d="M276 946q91 66 136 109.5t45 83.5q0 12 -4 20.5t-9 18.5q-49 19 -77 53q-29 38 -29 92q0 38 14 70t39 55q23 21 52.5 33t64.5 12t64.5 -14t52.5 -37q23 -24 36 -56t13 -67q0 -54 -9.5 -98.5t-27.5 -84.5q-18 -39 -45 -73.5t-62.5 -69t-80 -70t-97.5 -75.5z" />
<glyph unicode="&#x201a;" horiz-adv-x="752" d="M92 -207q45 33 79 59.5t56.5 49.5t33.5 43.5t11 40.5q0 12 -3.5 20.5t-8.5 18.5q-53 20 -78 54q-28 37 -28 91q0 38 13.5 70t38.5 55q23 21 53 33t65 12q38 0 69.5 -16.5t54.5 -43.5q19 -23 30 -52.5t11 -61.5q0 -59 -11 -107.5t-33 -90.5q-19 -36 -45.5 -69t-61 -65.5 t-77 -66.5t-93.5 -72z" />
<glyph unicode="&#x201c;" d="M1069 1393q-91 -66 -135.5 -109.5t-44.5 -83.5q0 -12 3.5 -20.5t8.5 -18.5q57 -22 84 -62q23 -35 23 -83q0 -37 -13 -68t-36 -54t-54 -35.5t-67 -12.5q-35 0 -64 13t-51 36q-24 24 -37.5 56.5t-13.5 68.5q0 66 13.5 118t40.5 98q39 65 106 125t161 130zM680 1393 q-91 -66 -135.5 -109.5t-44.5 -83.5q0 -12 3.5 -20.5t8.5 -18.5q58 -23 83 -61q23 -33 23 -84q0 -68 -42 -115q-23 -26 -55.5 -40.5t-71.5 -14.5q-36 0 -66.5 14.5t-53.5 39.5q-22 24 -34 55t-12 65q0 59 10.5 107t32.5 90q19 36 45.5 69t61 66t77.5 67t94 72z" />
<glyph unicode="&#x201d;" d="M322 944q90 66 135 109.5t45 83.5q0 12 -4 20.5t-9 18.5q-30 12 -51.5 28t-34.5 38q-20 34 -20 79q0 35 12 65.5t34 53.5q23 24 54.5 37.5t69.5 13.5q31 0 58 -11t48 -30q28 -25 44 -59.5t16 -73.5q0 -62 -12 -112t-36 -94q-19 -34 -45.5 -66t-61 -64t-76 -65t-91.5 -70z M711 944q90 66 135 109.5t45 83.5q0 12 -3.5 20.5t-8.5 18.5q-52 21 -79 55q-28 35 -28 90q0 38 14 70t39 55q23 21 52.5 33t64.5 12t65 -14t53 -38t35.5 -55.5t12.5 -66.5q0 -60 -11 -108t-34 -91q-37 -71 -106.5 -134t-170.5 -138z" />
<glyph unicode="&#x201e;" d="M121 -207q45 33 79 59.5t56.5 49.5t33.5 43.5t11 40.5q0 12 -3.5 20.5t-8.5 18.5q-52 21 -79 55q-28 35 -28 90q0 33 10.5 61.5t30.5 51.5q23 26 56 41.5t73 15.5q35 0 64.5 -14t52.5 -37q23 -24 36 -56t13 -67q0 -60 -11 -108.5t-34 -91.5q-19 -36 -45.5 -68.5t-61 -65 t-77 -66.5t-92.5 -71zM510 -207q45 33 79 59.5t56.5 49.5t33.5 43.5t11 40.5q0 12 -3.5 20.5t-8.5 18.5q-53 21 -81 58q-26 37 -26 87q0 33 10.5 61.5t30.5 51.5q23 26 56 41.5t73 15.5q36 0 66 -14t53 -38t35 -55.5t12 -66.5q0 -66 -14 -118.5t-41 -98.5 q-39 -65 -105 -124.5t-161 -129.5z" />
<glyph unicode="&#x2020;" horiz-adv-x="1026" d="M492 961h-342v200h342v303h206v-303h340v-200h-340v-1059h-206v1059z" />
<glyph unicode="&#x2021;" horiz-adv-x="1026" d="M113 492h342v469h-342v200h342v303h207v-303h339v-200h-339v-469h339v-201h-339v-389h-207v389h-342v201z" />
<glyph unicode="&#x2022;" horiz-adv-x="1073" d="M307 569q0 45 15.5 84t43.5 71q32 37 78 59t99 22q49 0 92.5 -19.5t75.5 -53.5q30 -32 47.5 -73.5t17.5 -89.5t-18 -89.5t-50 -73.5t-74.5 -51t-90.5 -19q-54 0 -100.5 21.5t-78.5 59.5q-27 31 -42 69.5t-15 82.5z" />
<glyph unicode="&#x2026;" horiz-adv-x="1503" d="M346 131q0 -29 -10 -54.5t-27 -45.5q-20 -23 -49 -37t-63 -14q-29 0 -53.5 10t-44.5 27q-24 21 -38 50.5t-14 63.5q0 32 12 60t33 48q20 20 47 31t58 11q54 0 95 -33q25 -20 39.5 -50.5t14.5 -66.5zM848 131q0 -53 -33 -94q-20 -26 -50.5 -41.5t-66.5 -15.5 q-28 0 -53 10.5t-45 27.5q-23 21 -37 50t-14 63q0 32 12.5 59.5t32.5 47.5t46.5 31.5t57.5 11.5q32 0 60.5 -12.5t48.5 -33.5q20 -20 30.5 -46.5t10.5 -57.5zM1352 131q0 -30 -11.5 -57t-31.5 -47q-21 -22 -49 -34.5t-60 -12.5q-28 0 -52.5 10.5t-44.5 27.5q-24 21 -38 50.5 t-14 62.5q0 31 11.5 58t31.5 47q20 21 47.5 33t58.5 12q32 0 59.5 -12t48.5 -33q20 -20 32 -47t12 -58z" />
<glyph unicode="&#x2030;" horiz-adv-x="2521" d="M670 1124q0 66 -40 108q-19 19 -46 29.5t-62 10.5q-45 0 -82.5 -17t-66.5 -46q-32 -33 -50 -78t-18 -93q0 -76 46 -117q39 -34 102 -34q50 0 91.5 21t70.5 57q26 32 40.5 73t14.5 86zM342 0h-201l1121 1313h-455q18 -23 33.5 -65t15.5 -95q0 -54 -13 -104.5t-37 -95.5 q-29 -55 -71.5 -100t-95.5 -77q-48 -29 -103 -45t-114 -16q-76 0 -135 26t-99 71q-71 80 -71 202q0 54 15 105.5t41 97.5q26 45 61.5 83.5t78.5 67.5q53 36 113.5 56t126.5 20h1010zM2218 387q0 73 -46 114q-39 36 -104 36q-49 0 -90 -21.5t-70 -56.5q-26 -32 -40.5 -72.5 t-14.5 -83.5q0 -62 32 -102q19 -23 47.5 -36t66.5 -13q55 0 101 26q26 14 47.5 36t37.5 48q16 28 24.5 59.5t8.5 65.5zM2404 414q0 -63 -18 -120.5t-50 -108.5q-29 -45 -67.5 -81t-83.5 -63q-49 -29 -104 -45t-113 -16q-68 0 -123 20.5t-94 57.5q-42 39 -64 94.5t-22 121.5 q0 51 12 98.5t35 91.5q27 53 66 97.5t89 76.5q51 34 109.5 52.5t122.5 18.5q65 0 119 -20.5t94 -56.5q45 -40 68.5 -96t23.5 -122zM1391 387q0 68 -42 110q-19 19 -46 29.5t-62 10.5q-52 0 -95 -24t-72 -63q-23 -31 -35.5 -68.5t-12.5 -78.5q0 -35 10 -63.5t30 -48.5 q37 -39 105 -39q57 0 104 27.5t76 72.5q19 29 29.5 63t10.5 72zM1577 414q0 -52 -12.5 -100t-35.5 -92q-29 -57 -73.5 -103t-98.5 -78q-49 -29 -103.5 -45t-112.5 -16q-73 0 -130 23t-97 65q-37 39 -56.5 91t-19.5 115q0 58 16 112.5t45 103.5q29 50 70 90.5t91 69.5 q48 28 101 43.5t111 15.5q66 0 120.5 -21t94.5 -58q43 -40 66.5 -95t23.5 -121z" />
<glyph unicode="&#x2039;" horiz-adv-x="676" d="M133 381l25 131l440 326l-41 -226l-242 -172l183 -153l-41 -224z" />
<glyph unicode="&#x203a;" horiz-adv-x="676" d="M76 63l41 224l239 153l-180 172l41 226l322 -326l-25 -131z" />
<glyph unicode="&#x2044;" horiz-adv-x="512" d="M-33 0h-188l885 1464h186z" />
<glyph unicode="&#x20ac;" d="M1122 1155q-91 64 -211 64q-61 0 -115.5 -13.5t-102.5 -43.5q-50 -31 -92.5 -80t-78.5 -121h514l-51 -152h-524q-11 -40 -18.5 -80t-12.5 -80h496l-60 -151h-440q5 -52 20.5 -98t42.5 -84q37 -52 93 -82.5t129 -30.5q103 0 182 30q82 31 145 95v-244q-49 -49 -136 -75 q-99 -29 -238 -29q-69 0 -130 16.5t-114 46.5q-117 67 -181 189q-61 118 -63 266h-108v151h116q3 42 10 81t15 79h-141v152h186q27 67 63 127t81 112q48 57 105.5 101.5t123.5 76.5q67 32 140.5 50t154.5 18t153 -15.5t135 -44.5z" />
<glyph unicode="&#x2122;" horiz-adv-x="1022" d="M592 1364h-154v-426h-114v426h-158v100h426v-100zM729 1464l105 -325l104 325h86l90 -524h-113l-47 260l-84 -264h-75l-86 268l-45 -264h-113l86 524h92z" />
<glyph unicode="&#x2212;" d="M145 530v201h983v-201h-983z" />
<glyph unicode="&#x2260;" horiz-adv-x="1380" d="M983 956h199v-200h-314l-141 -250h455v-201h-568l-94 -166h-217l94 166h-198v201h311l141 250h-452v200h567l94 166h217z" />
<glyph unicode="&#x2264;" horiz-adv-x="1382" d="M199 0v201h983v-201h-983zM1184 260l-985 336v192l985 334v-219l-701 -211l701 -211v-221z" />
<glyph unicode="&#x2265;" horiz-adv-x="1382" d="M199 481l700 211l-700 211v219l985 -334v-192l-985 -336v221zM201 0v201h983v-201h-983z" />
<glyph unicode="&#x25fc;" horiz-adv-x="900" d="M0 900h900v-900h-900v900z" />
<glyph unicode="&#xfb01;" horiz-adv-x="1053" d="M891 0h-215l137 731h-326l-143 -788q-15 -85 -64 -152q-40 -56 -96 -92q-39 -25 -84 -39t-96 -14l-45 139q31 5 60 21t52 40q21 22 35.5 48.5t20.5 56.5l141 780h-137l37 170h131q2 7 6 30t9 54t11.5 65.5t11.5 65t9 53t6 29.5q19 92 67 154q23 31 52.5 53.5t63.5 38.5 q46 22 98 31.5t108 9.5q42 0 84 -7t80 -18q44 -12 77 -26t50 -25l-22 -174q-30 18 -58 32t-58 24q-35 12 -73.5 18t-89.5 6q-28 0 -57.5 -7t-53.5 -27q-19 -15 -32.5 -38t-18.5 -57q-1 -5 -4.5 -26.5t-9 -51t-11.5 -63t-11 -63.5t-9 -52t-6 -29h543z" />
<glyph unicode="&#xfb02;" horiz-adv-x="1188" d="M1065 72q-24 -30 -48 -48t-47.5 -28t-47.5 -13t-48 -3q-38 0 -68 16t-51 45q-18 26 -28 60.5t-10 76.5q0 41 9.5 106t31.5 167l172 839q-32 11 -71.5 18t-92.5 7q-36 0 -67 -5.5t-56 -18.5q-62 -31 -74 -105q-1 -7 -4.5 -28.5t-9 -51t-11.5 -63t-11 -63t-9 -51t-6 -28.5 h217l-37 -170h-211l-143 -788q-17 -87 -66 -154q-19 -26 -41.5 -48t-48.5 -39q-40 -26 -86.5 -41t-97.5 -15l-45 139q59 11 106 55q24 23 40.5 51t21.5 60l141 780h-137l37 170h131q2 7 6 30t9 54t11.5 65.5t11.5 65t9 53t6 29.5q10 51 29 92t46 73q49 58 120 88 q40 17 85.5 25.5t94.5 8.5q39 0 74 -3.5t68 -7t65 -7t65 -3.5h181l-213 -1044q-6 -27 -11 -57.5t-9 -60.5t-6.5 -57t-2.5 -46q0 -32 12 -55.5t30.5 -39t41 -23t43.5 -7.5v-2z" />
</font>
</defs>
</svg>
